NetHD.org

Still Walking 2008 1080p BluRay Remux AVC FLAC 2.0-PTer

Download Still Walking 2008 1080p BluRay Remux AVC FLAC 2.0-PTer 
Small DescriptionStill Walking is a family drama about grown children visiting their elderly parents, which unfolds over one summer day. The aging parents have lived in the family home for decades. Their son and daughter return for a rare family reunion, bringing their own families with them. They have gathered to commemorate the tragic death of the eldest son, who drowned in an accident fifteen years ago. Although the roomy house is as comforting and unchanging as the mother's homemade feast, everyone in the…
Basic Info
Uploaded byAncREOsH (Power User) at 2020-10-17 03:56:26
Action
Hot Meter
  • Views: 62
  • Hits: 11
  • Snatched: 6 x time(s)
  • Last Action: 2020-10-31 07:46:48
Peers1 Seeder | 0 Leecher




CODE
General
Unique ID : 133077840307268011838495804860887486887 (0x641DDC191D47F35FEFC8FB3E295451A7)
Complete name : Still Walking 2008 1080p Blu-ray Remux AVC FLAC 2.0-PTer.mkv
Format : Matroska
Format version : Version 4
File size : 32.2 GiB
Duration : 1 h 54 min
Overall bit rate mode : Variable
Overall bit rate : 40.2 Mb/s
Encoded date : UTC 2020-10-16 00:16:16
Writing application : mkvmerge v51.0.0 ('I Wish') 64-bit
Writing library : libebml v1.4.0 + libmatroska v1.6.2

Video
ID : 1
Format : AVC
Format/Info : Advanced Video Codec
Format profile : High@L4.1
Format settings : CABAC / 4 Ref Frames
Format settings, CABAC : Yes
Format settings, Reference frames : 4 frames
Codec ID : V_MPEG4/ISO/AVC
Duration : 1 h 54 min
Bit rate mode : Variable
Bit rate : 38.9 Mb/s
Maximum bit rate : 40.0 Mb/s
Width : 1 920 pixels
Height : 1 080 pixels
Display aspect ratio : 16:9
Frame rate mode : Constant
Frame rate : 23.976 (24000/1001) FPS
Color space : YUV
Chroma subsampling : 4:2:0
Bit depth : 8 bits
Scan type : Progressive
Bits/(Pixel*Frame) : 0.781
Stream size : 31.1 GiB (97%)
Default : Yes
Forced : No

Audio
ID : 2
Format : FLAC
Format/Info : Free Lossless Audio Codec
Codec ID : A_FLAC
Duration : 1 h 54 min
Bit rate mode : Variable
Bit rate : 1 305 kb/s
Channel(s) : 2 channels
Channel layout : L R
Sampling rate : 48.0 kHz
Frame rate : 11.719 FPS (4096 SPF)
Bit depth : 24 bits
Compression mode : Lossless
Stream size : 1.05 GiB (3%)
Title : Japanese
Writing library : libFLAC 1.2.1 (UTC 2007-09-17)
Language : Japanese
Default : Yes
Forced : No

Text #1
ID : 3
Format : PGS
Muxing mode : zlib
Codec ID : S_HDMV/PGS
Codec ID/Info : Picture based subtitle format used on BDs/HD-DVDs
Duration : 1 h 53 min
Bit rate : 31.9 kb/s
Count of elements : 2790
Stream size : 26.0 MiB (0%)
Title : English
Language : English
Default : Yes
Forced : No

Text #2
ID : 4
Format : PGS
Muxing mode : zlib
Codec ID : S_HDMV/PGS
Codec ID/Info : Picture based subtitle format used on BDs/HD-DVDs
Duration : 1 h 53 min
Bit rate : 34.3 kb/s
Count of elements : 3400
Stream size : 28.0 MiB (0%)
Title : Japanese
Language : Japanese
Default : No
Forced : No

Menu
00:00:00.000 : en:Chapter 01
00:05:43.593 : en:Chapter 02
00:13:39.068 : en:Chapter 03
00:22:22.550 : en:Chapter 04
00:27:06.542 : en:Chapter 05
00:33:45.899 : en:Chapter 06
00:36:33.983 : en:Chapter 07
00:43:24.393 : en:Chapter 08
00:49:51.405 : en:Chapter 09
00:57:39.206 : en:Chapter 10
01:04:56.476 : en:Chapter 11
01:13:24.650 : en:Chapter 12
01:20:54.975 : en:Chapter 13
01:27:24.739 : en:Chapter 14
01:34:11.771 : en:Chapter 15
01:38:32.907 : en:Chapter 16
01:48:27.501 : en:Chapter 17


Still Walking 2008 1080p BluRay Remux AVC FLAC 2.0-PTer screenshotsStill Walking 2008 1080p BluRay Remux AVC FLAC 2.0-PTer screenshotsStill Walking 2008 1080p BluRay Remux AVC FLAC 2.0-PTer screenshotsStill Walking 2008 1080p BluRay Remux AVC FLAC 2.0-PTer screenshotsStill Walking 2008 1080p BluRay Remux AVC FLAC 2.0-PTer screenshotsStill Walking 2008 1080p BluRay Remux AVC FLAC 2.0-PTer screenshots
TitleAruitemo aruitemo
Year2008
GenreDrama
Rating7.9 (13,384 votes)
PlotStill Walking is a family drama about grown children visiting their elderly parents, which unfolds over one summer day. The aging parents have lived in the family home for decades. Their son and daughter return for a rare family reunion, bringing their own families with them. They have gathered to commemorate the tragic death of the eldest son, who drowned in an accident fifteen years ago. Although the roomy house is as comforting and unchanging as the mother's homemade feast, everyone in the…
DirectorHirokazu Koreeda
CastsHiroshi Abe / Yui Natsukawa / You / Kazuya Takahashi / Shohei Tanaka…
Runtime115 min
Aruitemo aruitemo

No keyword! (Click to edit!)

A Hidden Life 2019 720p BluRay DD5 1 x264-SbRThirst 2009 mHD BluRay DD5.1 x264-TRiMThe Iron Lady 2011 720p BluRay DD5.1 x264-EbPCinema Paradiso 1988 DC 720p BluRay x264-CtrlHDCrimson Peak 2015 720p BluRay DTS x264-VietHDRings 2017 720p BluRay DD5.1 x264-KASHMiR