NetHD.org

Nâng Cấp RatioTài Khoản VIPDonate VDP

Stolen 2012 1080p BluRay DTS x264-DON

Download Stolen 2012 1080p BluRay DTS x264-DON 
Descriptioninternal HDB encode
Basic Info
Uploaded byNúp Lùm at 2021-01-14 15:49:03
Action
Hot Meter
  • Views: 91
  • Hits: 23
  • Snatched: 15 x time(s)
  • Last Action: 2021-01-25 03:25:13
Peers6 Seeder | 0 Leecher


Stolen 2012 1080p BluRay DTS x264-DON screenshots



Trích dẫn
General
Unique ID                                : 229660563736073420596630875609479450511 (0xACC704033D0EDDB8A4801D09D4CB0F8F)
Complete name                            : /sdh/0047/downloads/watch/Torrente/Stolen.2012.1080p.BluRay.DTS.x264-DON/Stolen.2012.1080p.BluRay.DTS.x264-DON.mkv
Format                                   : Matroska
Format version                           : Version 2
File size                                : 11.8 GiB
Duration                                 : 1h 35mn
Overall bit rate                         : 17.6 Mbps
Encoded date                             : UTC 2012-11-28 13:21:30
Writing application                      : mkvmerge v5.8.0 ('No Sleep / Pillow') built on Sep  2 2012 15:37:04
Writing library                          : libebml v1.2.3 + libmatroska v1.3.0

Video
ID                                       : 1
Format                                   : AVC
Format/Info                              : Advanced Video Codec
Format profile                           : High@L4.1
Format settings, CABAC                   : Yes
Format settings, ReFrames                : 5 frames
Codec ID                                 : V_MPEG4/ISO/AVC
Duration                                 : 1h 35mn
Bit rate                                 : 15.8 Mbps
Width                                    : 1 920 pixels
Height                                   : 816 pixels
Display aspect ratio                     : 2.35:1
Frame rate mode                          : Constant
Frame rate                               : 23.976 (24000/1001) fps
Color space                              : YUV
Chroma subsampling                       : 4:2:0
Bit depth                                : 8 bits
Scan type                                : Progressive
Bits/(Pixel*Frame)                       : 0.420
Stream size                              : 10.5 GiB (89%)
Writing library                          : x264 core 129 r2230 1cffe9f
Encoding settings                        : cabac=1 / ref=5 / deblock=1:-3:-3 / analyse=0x3:0x113 / me=umh / subme=9 / psy=1 / psy_rd=1.10:0.00 / mixed_ref=1 / me_range=16 / chroma_me=1 / trellis=2 / 8x8dct=1 / cqm=0 / deadzone=21,11 / fast_pskip=0 / chroma_qp_offset=-2 / threads=6 / lookahead_threads=1 / sliced_threads=0 / nr=0 / decimate=0 / interlaced=0 / bluray_compat=0 / constrained_intra=0 / bframes=8 / b_pyramid=2 / b_adapt=2 / b_bias=0 / direct=3 / weightb=1 / open_gop=0 / weightp=2 / keyint=250 / keyint_min=23 / scenecut=40 / intra_refresh=0 / rc=crf / mbtree=0 / crf=18.0 / qcomp=0.70 / qpmin=0 / qpmax=69 / qpstep=4 / ip_ratio=1.30 / pb_ratio=1.20 / aq=1:0.85
Language                                 : English
Default                                  : Yes
Forced                                   : No

Audio
ID                                       : 2
Format                                   : DTS
Format/Info                              : Digital Theater Systems
Mode                                     : 16
Format settings, Endianness              : Big
Codec ID                                 : A_DTS
Duration                                 : 1h 35mn
Bit rate mode                            : Constant
Bit rate                                 : 1 509 Kbps
Channel(s)                               : 6 channels
Channel positions                        : Front: L C R, Side: L R, LFE
Sampling rate                            : 48.0 KHz
Frame rate                               : 93.750 fps (512 spf)
Bit depth                                : 24 bits
Compression mode                         : Lossy
Stream size                              : 1.01 GiB (9%)
Language                                 : English
Default                                  : Yes
Forced                                   : No

Menu
00:00:00.000                             : en:Chapter 1
00:08:31.636                             : en:Chapter 2
00:14:20.609                             : en:Chapter 3
00:20:30.145                             : en:Chapter 4
00:30:58.648                             : en:Chapter 5
00:41:15.222                             : en:Chapter 6
00:51:11.818                             : en:Chapter 7
00:59:54.799                             : en:Chapter 8
01:08:47.414                             : en:Chapter 9
01:15:53.840                             : en:Chapter 10
01:24:26.811                             : en:Chapter 11
01:30:16.828                             : en:Chapter 12



TitleCuop Siêu Hang
Year2012
GenreAction
Rating5.5 (43,281 votes)
PlotIn New Orleans, the notorious bank thief and family man Will Montgomery steals $10m with his partners Vincent, Riley Jeffers and Hoyt. However, he has an argument with Vincent in the runaway and Hoyt leaves Will behind. He tries to flee but the FBI agent Tim Harlend organizes a manhunt and Will is captured, but he burns the stolen money to get rid of the evidence against him. Eight years later, Will leaves the prison and he goes to the house of his teenage daughter Alison Loeb, who has issues…
DirectorSimon West
CastsNicolas Cage / Josh Lucas / Danny Huston / Malin Akerman / Sami Gayle…
Runtime96 min
Cuop Siêu Hang

No keyword! (Click to edit!)

Non-Stop 2014 1080p BluRay DTS x264-EbPBlitz 2011 ViE mHD Bluray DD5.1 x264-TRiMThe Host 2013 1080p BluRay DD5.1 x264-CRiSCIp Man 4 The Finale 2019 1080p Blu-ray Remux AVC TrueHD 7.1 Atmos-WiTCH3RResident Evil 2002 2160p UHD EUR Blu-ray HDR HEVC TrueHD Atmos 7.1-GLiMMER Spectre 2015 UHD HDR DV Blu-ray 2160p REMUX HEVC DTS-HD MA 7.1-Viet8K