NetHD.org

Suits S09 1080p AMZN WEB-DL DDP5.1 H.264-NDy

Download Suits S09 1080p AMZN WEB-DL DDP5.1 H.264-NDy Free
Small DescriptionWhile running from a drug deal gone bad, Mike Ross, a brilliant young college dropout, slips into a job interview with one of New York City's best legal closers, Harvey Specter. Tired of cookie-cutter law school grads, Harvey takes a gamble by hiring Mike on the spot after he recognizes his raw talent and photographic memory. Mike and Harvey are a winning team. Even though Mike is a genius, he still has a lot to learn about law. And while Harvey may seem like an emotionless, cold-blooded shark,…
Basic Info
Uploaded byAnonymous at 2019-12-03 10:33:46
Action
Hot Meter
  • Views: 56
  • Hits: 11
  • Snatched: 4 x time(s)
  • Last Action: 2019-12-05 23:56:15
Peers2 Seeder | 0 Leecher

  • 0


Suits S09 1080p AMZN WEB-DL DDP5.1 H.264-NDy screenshots Suits S09 1080p AMZN WEB-DL DDP5.1 H.264-NDy screenshots Suits S09 1080p AMZN WEB-DL DDP5.1 H.264-NDy screenshots Suits S09 1080p AMZN WEB-DL DDP5.1 H.264-NDy screenshots Suits S09 1080p AMZN WEB-DL DDP5.1 H.264-NDy screenshots Suits S09 1080p AMZN WEB-DL DDP5.1 H.264-NDy screenshots Suits S09 1080p AMZN WEB-DL DDP5.1 H.264-NDy screenshots Suits S09 1080p AMZN WEB-DL DDP5.1 H.264-NDy screenshots Suits S09 1080p AMZN WEB-DL DDP5.1 H.264-NDy screenshots

Video
ID : 1
Format : AVC
Format/Info : Advanced Video Codec
Format profile : High@L4
Format settings : CABAC / 4 Ref Frames
Format settings, CABAC : Yes
Format settings, Reference frames : 4 frames
Codec ID : V_MPEG4/ISO/AVC
Duration : 47 min 40 s
Bit rate mode : Constant
Bit rate : 8 775 kb/s
Nominal bit rate : 10 000 kb/s
Width : 1 920 pixels
Height : 1 080 pixels
Display aspect ratio : 16:9
Frame rate mode : Constant
Frame rate : 23.976 (24000/1001) FPS
Color space : YUV
Chroma subsampling : 4:2:0
Bit depth : 8 bits
Scan type : Progressive
Bits/(Pixel*Frame) : 0.177
Stream size : 2.92 GiB (93%)
Default : Yes
Forced : No
Color range : Limited
Color primaries : BT.709
Transfer characteristics : BT.709
Matrix coefficients : BT.709

Audio
ID : 2
Format : E-AC-3
Format/Info : Enhanced AC-3
Commercial name : Dolby Digital Plus
Codec ID : A_EAC3
Duration : 47 min 40 s
Bit rate mode : Constant
Bit rate : 640 kb/s
Channel(s) : 6 channels
Channel layout : L R C LFE Ls Rs
Sampling rate : 48.0 kHz
Frame rate : 31.250 FPS (1536 SPF)
Compression mode : Lossy
Stream size : 218 MiB (7%)
Language : English
Service kind : Complete Main
Default : Yes
Forced : No

Text #1
ID : 3
Format : UTF-8
Codec ID : S_TEXT/UTF8
Codec ID/Info : UTF-8 Plain Text
Duration : 46 min 15 s
Bit rate : 111 b/s
Count of elements : 1097
Stream size : 37.9 KiB (0%)
Title : English
Language : English
Default : Yes
Forced : No

Text #2
ID : 4
Format : UTF-8
Codec ID : S_TEXT/UTF8
Codec ID/Info : UTF-8 Plain Text
Duration : 47 min 4 s
Bit rate : 112 b/s
Count of elements : 1183
Stream size : 38.9 KiB (0%)
Title : English (SDH)
Language : English
Default : No
Forced : No
TitleLuat Su Tay Choi
Year2011
Genre
Rating8.5 (339,151 votes)
PlotWhile running from a drug deal gone bad, Mike Ross, a brilliant young college dropout, slips into a job interview with one of New York City's best legal closers, Harvey Specter. Tired of cookie-cutter law school grads, Harvey takes a gamble by hiring Mike on the spot after he recognizes his raw talent and photographic memory. Mike and Harvey are a winning team. Even though Mike is a genius, he still has a lot to learn about law. And while Harvey may seem like an emotionless, cold-blooded shark,…
Directorn/A
CastsGabriel Macht,Rick Hoffman,Sarah Rafferty,Patrick J. Adams,Meghan Markle…
Runtime44 min
Luat Su Tay Choi


Bones S11E18 720p HDTV x264-FLEETGrimm 2011 S01 mHD BluRay DD5.1 x264-TRiMTimeless S01E07 720p HDTV x264-KILLERSThe Big Bang Theory S10E07 720p HDTV DD5.1 x264-DIMENSIONThe Librarians US S02E09 720p HDTV x264-0SECOfficer Geomancer TVB 2015 E14-E20 HD720P MP4 AAC

Only members can create comment.