NetHD.org

Royal Tramp 2008 480p SDTV Complete

Download Royal Tramp 2008 480p SDTV Complete 
Small DescriptionTân lộc đỉnh ký USLT
Basic Info
Uploaded bytralkic (Extreme User) at 2011-08-29 22:12:44
Action
Social
  • 35
Hot Meter
  • Views: 5374
  • Hits: 758
  • Snatched: 290 x time(s)
  • Last Action: 2019-02-19 01:30:48
Peers2 Seeder | 0 Leecher


Royal Tramp 2008 480p SDTV Complete screenshots

Quote
     Video #1
     ID : 1
     Format : AVC
     Format/Info : Advanced Video Codec
     Format profile : Main@L3.0
     Format settings, CABAC : Yes
     Format settings, ReFrames : 2 frames
     Codec ID : avc1
     Codec ID/Info : Advanced Video Coding
     Duration : 43mn 44s
     Bit rate mode : Variable
     Bit rate : 500 Kbps
     Maximum bit rate : 1 208 Kbps
     Width : 480 pixels
     Height : 264 pixels
     Display aspect ratio : 16:9
     Frame rate mode : Constant
     Frame rate : 29.970 fps
     Resolution : 24 bits
     Colorimetry : 4:2:0
     Scan type : Progressive
     Bits/(Pixel*Frame) : 0.132
     Stream size : 156 MiB (83%)    
  Audio #2
     ID : 2
     Format : AAC
     Format/Info : Advanced Audio Codec
     Format version : Version 4
     Format profile : LC
     Format settings, SBR : No
     Codec ID : 40
     Duration : 43mn 44s
     Bit rate mode : Variable
     Bit rate : 96.0 Kbps
     Maximum bit rate : 104 Kbps
     Channel(s) : 2 channels
     Channel positions : L R
     Sampling rate : 48.0 KHz
     Resolution : 16 bits
     Stream size : 30.4 MiB (16%)
     Encoded date : UTC 2009-07-21 09:37:25
     Tagged date : UTC 2009-07-21 09:37:27

Bộ phim Tân Lộc Đỉnh Ký xây dựng dựa trên tác phẩm Lộc Đỉnh Ký của nhà văn Kim Dung. Bộ phim đã rất thành công trong việc miêu tả lại cuộc đời của Vi Tiểu Bảo 1 cách sinh động và chân thực, qua đó làm cho người xem càng hiểu rõ hơn những ý nghĩa và tinh thần của tác phẩm. Ngoài những yếu tố con người ra, bộ phim còn thành công nhờ những bộ trang phục rất ấn tượng và hợp thời đại, khiến chúng ta như bước vào 1 thế giới phong kiến thực sự.

Bộ phim Tân Lộc Đỉnh Ký của Trương Kỷ Trung do Huỳnh Hiểu Minh đóng chính ngay từ khi công bố dàn diễn viên đã vấp phải sự phản đổi của dư luận. Trong các bản phim trước dù đó là Lương Triều Vỹ , Trần Tiểu Xuân hay Trương Vệ Kiện thì Vi Tiểu Bảo vẫn luôn là anh chàng có thân hình nhỏ bé và không đẹp trai. Song với Tân Lộc Đỉnh Ký, Huỳnh Hiểu Minh với chiều cao lý tưởng và khuôn mặt của Dương Quá đã khiến các fan phải sốc khi anh thể hiện vai anh chàng Vi Tiểu Bảo.

Royal Tramp 2008 480p SDTV Complete screenshots

Royal Tramp 2008 480p SDTV Complete screenshots
Royal Tramp 2008 480p SDTV Complete screenshots
Royal Tramp 2008 480p SDTV Complete screenshots
Royal Tramp 2008 480p SDTV Complete screenshots


Royal Tramp 2000 DVDRip Full 40 tậpDominion S01 720p BluRay DD5.1 x264-EbPRed Band Society S01E04 720p HDTV x264-KILLERSThe 100 S02 720p WEB-DL DD5.1 H.264-KiNGSBoss S01 REPACK 720p Bluray DD5.1 x264-DON24 S01 720p WEB-DL AAC2.0 H.264

Only members can create comment.