Tangled The Series S01 720p WEBRip AAC2.0 x264

Download Tangled The Series S01 720p WEBRip AAC2.0 x264 Free
Small DescriptionCông chúa tóc mây
Basic Info
Uploaded bydpc (Uploader) at 2018-02-13 22:52:52
Action
Social
  • 3
Hot Meter
  • Views: 353
  • Hits: 15
  • Snatched: 5 x time(s)
  • Last Action: 2018-10-21 20:07:49
Peers0 Seeder | 0 Leecher
Tangled The Series S01 720p WEBRip AAC2.0 x264 screenshots


Quote
General
Unique ID                   : 176605440186687698881826164569475643769 (0x84DCF8769A1D6BC4B10F384427FFF979)
Complete name               : E:\up\Tangled.The.Series.S01.720p.DSNY.WEBRip.AAC2.0.x264\Tangled.The.Series.S01E01.What.the.Hair.720p.DSNY.WEBRip.AAC2.0.x264-TVSmash.mkv
Format                      : Matroska
Format version              : Version 4 / Version 2
File size                   : 548 MiB
Duration                    : 22mn 33s
Overall bit rate            : 3 396 Kbps
Encoded date                : UTC 2017-03-24 11:15:14
Writing application         : mkvmerge v9.9.0 ('Pick Up') 64bit
Writing library             : libebml v1.3.4 + libmatroska v1.4.5

Video
ID                          : 1
Format                      : AVC
Format/Info                 : Advanced Video Codec
Format profile              : High@L3.1
Format settings, CABAC      : Yes
Format settings, ReFrames   : 2 frames
Codec ID                    : V_MPEG4/ISO/AVC
Duration                    : 22mn 33s
Bit rate                    : 3 360 Kbps
Width                       : 1 280 pixels
Height                      : 720 pixels
Display aspect ratio        : 16:9
Frame rate mode             : Constant
Frame rate                  : 23.976 (24000/1001) fps
Original frame rate         : 24.000 fps
Color space                 : YUV
Chroma subsampling          : 4:2:0
Bit depth                   : 8 bits
Scan type                   : Progressive
Bits/(Pixel*Frame)          : 0.152
Stream size                 : 527 MiB (96%)
Writing library             : x264 core 148 r2579M 73ae2d1
Encoding settings           : cabac=1 / ref=2 / deblock=1:0:0 / analyse=0x3:0x113 / me=hex / subme=2 / psy=1 / psy_rd=1.00:0.00 / mixed_ref=0 / me_range=16 / chroma_me=1 / trellis=0 / 8x8dct=1 / cqm=0 / deadzone=21,11 / fast_pskip=1 / chroma_qp_offset=0 / threads=4 / lookahead_threads=1 / sliced_threads=0 / nr=250 / decimate=1 / interlaced=0 / bluray_compat=0 / stitchable=1 / constrained_intra=0 / bframes=0 / weightp=1 / keyint=250 / keyint_min=24 / scenecut=40 / intra_refresh=0 / rc_lookahead=10 / rc=2pass / mbtree=1 / bitrate=3360 / ratetol=1.0 / qcomp=0.60 / qpmin=5 / qpmax=69 / qpstep=4 / cplxblur=20.0 / qblur=0.5 / ip_ratio=1.40 / aq=1:1.00
Language                    : English
Default                     : Yes
Forced                      : No

Audio
ID                          : 2
Format                      : AAC
Format/Info                 : Advanced Audio Codec
Format profile              : HE-AAC / LC
Codec ID                    : A_AAC
Duration                    : 22mn 33s
Bit rate                    : 127 Kbps
Channel(s)                  : 2 channels
Channel positions           : Front: L R
Sampling rate               : 48.0 KHz / 24.0 KHz
Frame rate                  : 23.438 fps (1024 spf)
Compression mode            : Lossy
Stream size                 : 20.4 MiB (4%)
Language                    : English
Default                     : Yes
Forced                      : No

Text
ID                          : 3
Format                      : UTF-8
Codec ID                    : S_TEXT/UTF8
Codec ID/Info               : UTF-8 Plain Text
Duration                    : 22mn 31s
Bit rate                    : 95 bps
Count of elements           : 478
Stream size                 : 15.7 KiB (0%)
Language                    : English
Default                     : Yes
Forced                      : No




Tangled The Series S01 720p WEBRip AAC2.0 x264 screenshots


Tangled The Series S01 720p WEBRip AAC2.0 x264 screenshots Tangled The Series S01 720p WEBRip AAC2.0 x264 screenshots Tangled The Series S01 720p WEBRip AAC2.0 x264 screenshots Tangled The Series S01 720p WEBRip AAC2.0 x264 screenshots



Tangled The Series S01 720p WEBRip AAC2.0 x264 screenshots



TitleTangled: The Series
Year2017
Genre
Rating7.7 (932 votes)
Plotn/A
Directorn/A
CastsMandy Moore,Zachary Levi,Eden Espinosa,Paul F. Tompkins,Jeffrey Ross…
Runtime21 min
Genres
Tangled: The Series


Tags

Other releases

Same genre with Tangled The Series S01 720p WEBRip AAC2.0 x264

A Gruesome Twosome 1945 720p BluRay DD1.0 x264-EbP Cloudy with a Chance of Meatballs 2 2013 BluRay 720p DTS x264-CHDHundred 2016 Bluray 1080p x264 FLAC-NogroupThe Three Caballeros 1944 1080p WEBRip DD5.1 x264-TrollHD The Rescuers Down Under 1990 mHD BluRay DD5.1 x264-BiRD Book of Dragons 2011 720p BluRay DD5.1 x264-EbP

Comment for Tangled The Series S01 720p WEBRip AAC2.0 x264

Only members can create comment.