NetHD.org

The Blue Lagoon 1980 ViE mHD BluRay DD2.0 x264-EPiK

Download The Blue Lagoon 1980 ViE mHD BluRay DD2.0 x264-EPiK  
Small DescriptionEo Biển Xanh l Thuyết Minh
Basic Info
Uploaded byAnonymous at 2019-10-06 20:28:59
Action
Hot Meter
  • Views: 1029
  • Hits: 134
  • Snatched: 114 x time(s)
  • Last Action: 2019-10-23 17:05:16
Peers34 Seeder | 0 Leecher



The Blue Lagoon 1980 ViE mHD BluRay DD2.0 x264-EPiK  screenshots




Quote
Emmeline và Richard là 2 đứa trẻ cùng đi trên 1 con tàu, sau đó 1 tai nạn xảy ra và tàu bị cháy cả 2 được ông lão đầu bếp làm trên con tàu đưa lên 1 chiếc thuyền nhỏ nên thoát chết, sau đó cả 3 trôi dạt vào một hòn đảo hoang và bắt đàu 1 cuộc sống mới.

Được một thời gian, trong một lần uống rượu say, ông lão bị nhện độc cắn chết bỏ lại 2 đứa trẻ bơ vơ trên hòn đảo, và chúng đã phải tự mình kiếm thức ăn, dựng một căn nhà nhỏ để sinh tồn giữa 1 nơi hoang dã tách biệt khỏi thế giới loài người.

Thời gian trôi qua cả 2 đứa trẻ đã lớn lên trên hòn đảo đó, tuy có đôi lúc sảy ra mâu thuẫn nhưng tình cảm giữa Emmeline và Richard ngày càng sâu đậm...




Quote
Complete name                  : The Blue Lagoon 1980 ViE mHD BluRay DD2.0 x264-EPiK.mkv
Format                         : Matroska
Format version                 : Version 2
File size                      : 2.90 GiB
Duration                       : 1h 44mn
Overall bit rate               : 3 957 Kbps
Movie name                     : Bicentennial.Man.1999.1080p.WEB-DL.DD5.1.H264-FGT
Encoded date                   : UTC 2019-10-06 01:02:00
Writing application            : mkvmerge v5.5.0 ('Healer') built on Apr  6 2012 21:43:24
Writing library                : libebml v1.2.3 + libmatroska v1.3.0


Video
ID                             : 4
Format                         : AVC
Format/Info                    : Advanced Video Codec
Format profile                 : High@L4.1
Format settings, CABAC         : Yes
Format settings, ReFrames      : 9 frames
Muxing mode                    : Header stripping
Codec ID                       : V_MPEG4/ISO/AVC
Duration                       : 1h 44mn
Bit rate                       : 3 000 Kbps
Width                          : 1 280 pixels
Height                         : 696 pixels
Display aspect ratio           : 1.85:1
Frame rate mode                : Constant
Frame rate                     : 23.976 fps
Color space                    : YUV
Chroma subsampling             : 4:2:0
Bit depth                      : 8 bits
Scan type                      : Progressive
Bits/(Pixel*Frame)             : 0.140
Stream size                    : 2.14 GiB (74%)
Title                          : The Blue Lagoon 1980
Writing library                : x264 core 129 r2245 bc13772
Encoding settings              : cabac=1 / ref=9 / deblock=1:-3:-3 / analyse=0x3:0x113 / me=umh / subme=9 / psy=1 / psy_rd=1.20:0.00 / mixed_ref=1 / me_range=16 / chroma_me=1 / trellis=2 / 8x8dct=1 / cqm=0 / deadzone=21,11 / fast_pskip=0 / chroma_qp_offset=-2 / threads=6 / lookahead_threads=1 / sliced_threads=0 / nr=0 / decimate=0 / interlaced=0 / bluray_compat=0 / constrained_intra=0 / bframes=9 / b_pyramid=2 / b_adapt=2 / b_bias=0 / direct=3 / weightb=1 / open_gop=0 / weightp=2 / keyint=250 / keyint_min=23 / scenecut=40 / intra_refresh=0 / rc=2pass / mbtree=0 / bitrate=3000 / ratetol=1.0 / qcomp=0.60 / qpmin=0 / qpmax=69 / qpstep=4 / cplxblur=20.0 / qblur=0.5 / ip_ratio=1.40 / pb_ratio=1.30 / aq=1:0.90
Language                       : English
Default                        : Yes
Forced                         : No


Audio #1
ID                             : 1
Format                         : MPEG Audio
Format version                 : Version 1
Format profile                 : Layer 3
Mode                           : Joint stereo
Mode extension                 : MS Stereo
Muxing mode                    : Header stripping
Codec ID                       : A_MPEG/L3
Codec ID/Hint                  : MP3
Duration                       : 1h 44mn
Bit rate mode                  : Constant
Bit rate                       : 320 Kbps
Channel(s)                     : 2 channels
Sampling rate                  : 48.0 KHz
Compression mode               : Lossy
Stream size                    : 240 MiB (8%)
Writing library                : LAME3.99.5
Language                       : Vietnamese
Default                        : Yes
Forced                         : Yes


Audio #2
ID                             : 2
Format                         : AC-3
Format/Info                    : Audio Coding 3
Mode extension                 : CM (complete main)
Format settings, Endianness    : Big
Muxing mode                    : Header stripping
Codec ID                       : A_AC3
Duration                       : 1h 44mn
Bit rate mode                  : Constant
Bit rate                       : 640 Kbps
Channel(s)                     : 6 channels
Channel positions              : Front: L C R, Side: L R, LFE
Sampling rate                  : 48.0 KHz
Compression mode               : Lossy
Stream size                    : 480 MiB (16%)
Title                          : The Blue Lagoon 1980
Default                        : No
Forced                         : No




The Blue Lagoon 1980 ViE mHD BluRay DD2.0 x264-EPiK  screenshots The Blue Lagoon 1980 ViE mHD BluRay DD2.0 x264-EPiK  screenshots The Blue Lagoon 1980 ViE mHD BluRay DD2.0 x264-EPiK  screenshots The Blue Lagoon 1980 ViE mHD BluRay DD2.0 x264-EPiK  screenshots The Blue Lagoon 1980 ViE mHD BluRay DD2.0 x264-EPiK  screenshots The Blue Lagoon 1980 ViE mHD BluRay DD2.0 x264-EPiK  screenshots

TitleThe Blue Lagoon
Year1980
Genre
Rating5.8 (59,095 votes)
PlotOn a journey to San Francisco, Richard, his father and cousin Emmeline find themselves on a ship about to explode. Rushed to a lifeboat with Paddy Button, the two children escape while their father (and uncle) are on another lifeboat. In the chaos following, the lifeboats are separated. Paddy, Richard and Emmeline find themselves with no food and no water stuck in the middle of nowhere. After some time, the three come across an uncharted paradise, where Paddy quickly teaches the children…
DirectorRandal Kleiser
CastsBrooke Shields,Christopher Atkins,Leo McKern,William Daniels,Elva Josephson…
Runtime104 min
The Blue Lagoon


The Prestige 2006 1080p BluRay DD5.1 x264-CtrlHDTrue Lies 1994 ViE 720p DTheater DD5.1 x264-EbPTurks & Caicos 2014 720p BluRay DD5.1 x264-VietHDHard Target 2 2016 1080p Blu-ray AVC DTS-HD MA 5.1-HUEBRThe Punisher 2004 720p BluRay DD5.1 x264-NTbThe Kick 2011 mHD BluRay DD5.1 x264-TRiM

Only members can create comment.