The Competition 2018 BluRay 1080p DTS-HD MA 5.1 x264-MT

Download The Competition 2018 BluRay 1080p DTS-HD MA 5.1 x264-MT 
Small DescriptionThe main character (Thora Birch) follows the "PIG Theory" and ends relationships after six months in order to avoid heartache until she meets a man (Chris Klein) who wants to disprove her theory.
Basic Info
Uploaded byAnonymous at 2018-09-14 21:43:03
Action
Social
  • 0
Hot Meter
  • Views: 128
  • Hits: 8
  • Snatched: 2 x time(s)
  • Last Action: 2018-09-28 20:41:19
Peers0 Seeder | 0 Leecher
The Competition 2018 BluRay 1080p DTS-HD MA 5.1 x264-MT screenshots





Quote
General
Unique ID : 189168549577971348887065312371984957428 (0x8E508994269A200E997802090B95FFF4)
Complete name : /media/sdl1/nethd/private/rtorrent/data/The.Competition.2018.BluRay.1080p.DTS-HD.M.A.5.1.x264-MT.mkv
Format : Matroska
Format version : Version 4 / Version 2
File size : 12.6 GiB
Duration : 1 h 43 min
Overall bit rate : 17.5 Mb/s
Encoded date : UTC 2018-03-22 00:44:31
Writing application : mkvmerge v9.2.0 ('Photograph') 64bit
Writing library : libebml v1.3.3 + libmatroska v1.4.4

Video
ID : 1
Format : AVC
Format/Info : Advanced Video Codec
Format profile : High@L4.1
Format settings, CABAC : Yes
Format settings, ReFrames : 5 frames
Codec ID : V_MPEG4/ISO/AVC
Duration : 1 h 43 min
Bit rate : 14.1 Mb/s
Width : 1 920 pixels
Height : 802 pixels
Display aspect ratio : 2.40:1
Frame rate mode : Constant
Frame rate : 23.976 (24000/1001) FPS
Color space : YUV
Chroma subsampling : 4:2:0
Bit depth : 8 bits
Scan type : Progressive
Bits/(Pixel*Frame) : 0.382
Stream size : 10.2 GiB (81%)
Default : Yes
Forced : No

Audio
ID : 2
Format : DTS
Format/Info : Digital Theater Systems
Format profile : MA / Core
Mode : 16
Format settings, Endianness : Big
Codec ID : A_DTS
Duration : 1 h 43 min
Bit rate mode : Variable / Constant
Bit rate : 3 408 kb/s / 1 509 kb/s
Channel(s) : 6 channels
Channel positions : Front: L C R, Side: L R, LFE
Sampling rate : 48.0 kHz
Frame rate : 93.750 FPS (512 spf)
Bit depth : 24 bits
Compression mode : Lossless / Lossy
Stream size : 2.46 GiB (19%)
Default : Yes
Forced : No



The Competition 2018 BluRay 1080p DTS-HD MA 5.1 x264-MT screenshots The Competition 2018 BluRay 1080p DTS-HD MA 5.1 x264-MT screenshots The Competition 2018 BluRay 1080p DTS-HD MA 5.1 x264-MT screenshots 

The Competition 2018 BluRay 1080p DTS-HD MA 5.1 x264-MT screenshots The Competition 2018 BluRay 1080p DTS-HD MA 5.1 x264-MT screenshots The Competition 2018 BluRay 1080p DTS-HD MA 5.1 x264-MT screenshots

TitleThe Competition
Year2018
Genre
Rating4.4 (567 votes)
Plotn/A
DirectorHarvey Lowry
CastsThora Birch,Claire Coffee,Chris Klein,David Blue,Jason Tobias…
Runtime103 min
Genres
The Competition


Tags

Other releases

Same genre with The Competition 2018 BluRay 1080p DTS-HD MA 5.1 x264-MT

Cabin Fever 2016 720p WEB-DL DD5.1 H264-FGTThe Graduate 1967 mHD BluRay DD5.1 x264-TRiMSumo Do, Sumo Don't 1992 720p BluRay DD5.1 x264-BMDruLife of Brian 1979 720p BluRay DD5 1 x264-DONThe Wilde Wedding 2017 1080p BluRay DD5.1 x264-E1How to Be a Latin Lover 2017 720p BluRay DD5.1 x264-DON

Comment for The Competition 2018 BluRay 1080p DTS-HD MA 5.1 x264-MT

Only members can create comment.