The Dragon Chronicles The Maidens of Heavenly Mountians 1994 ViE 720p HDTV DD2.0 x264-TLBB

Download The Dragon Chronicles The Maidens of Heavenly Mountians 1994 ViE 720p HDTV DD2.0 x264-TLBB 
Small DescriptionThiên Long Bát Bộ - Thiên Sơn Đồng Lão l Lồng tiếng
Basic Info
Uploaded byanvietcanh2 (Uploader) at 2017-02-05 11:42:19
Action
Social
  • 2
Hot Meter
  • Views: 746
  • Hits: 81
  • Snatched: 67 x time(s)
  • Last Action: 2019-01-18 02:16:51
Peers1 Seeder | 0 Leecher
The Dragon Chronicles The Maidens of Heavenly Mountians 1994 ViE 720p HDTV DD2.0 x264-TLBB screenshotshebergeur d images

Tên Tiếng Hoa : 天龙八部之天山童姥
Tên Tiếng Anh : The Dragon Chronicles The Maidens of Heavenly Mountians
Ngày Phát Hành : 5-3-1994
Thời Lượng : 1:34:35
Diễn Viên :

Lâm Thanh Hà
Củng Lợi
Trương Mẫn
Lâm Văn Long
Từ Thiếu Cường
Liêu Khải Trí

General
Unique ID                                : 175840796409866398845749389776297318529 (0x8449B49D4A6D8475BD13ECEFE256D881)
Complete name                            : E:\The Dragon Chronicles The Maidens of Heavenly Mountians 1994 ViE 720p HDTV DD2.0 x264-TLBB.mkv
Format                                   : Matroska
Format version                           : Version 4 / Version 2
File size                                : 1.48 GiB
Duration                                 : 1 h 34 min
Overall bit rate                         : 2 243 kb/s
Encoded date                             : UTC 2017-01-28 18:28:48
Writing application                      : mkvmerge v9.6.0 ('Slave To Your Mind') 64bit
Writing library                          : libebml v1.3.4 + libmatroska v1.4.5

Video
ID                                       : 1
Format                                   : AVC
Format/Info                              : Advanced Video Codec
Format profile                           : High@L4.1
Format settings, CABAC                   : Yes
Format settings, ReFrames                : 5 frames
Codec ID                                 : V_MPEG4/ISO/AVC
Duration                                 : 1 h 34 min
Bit rate                                 : 1 886 kb/s
Width                                    : 1 280 pixels
Height                                   : 720 pixels
Display aspect ratio                     : 16:9
Frame rate mode                          : Constant
Frame rate                               : 25.000 FPS
Color space                              : YUV
Chroma subsampling                       : 4:2:0
Bit depth                                : 8 bits
Scan type                                : Progressive
Bits/(Pixel*Frame)                       : 0.082
Stream size                              : 1.23 GiB (83%)
Title                                    : The.Dragon.Chronicles.The.Maidens.Of.Heavenly.Moun.1994.720p.HDTV.KOR.SUBBED.x264.AC3-SILI
Writing library                          : x264 core 138 r2358 9e941d1
Encoding settings                        : cabac=1 / ref=6 / deblock=1:0:0 / analyse=0x3:0x113 / me=umh / subme=9 / psy=0 / mixed_ref=1 / me_range=32 / chroma_me=1 / trellis=2 / 8x8dct=1 / cqm=2 / deadzone=21,11 / fast_pskip=0 / chroma_qp_offset=0 / threads=18 / lookahead_threads=1 / sliced_threads=0 / nr=0 / decimate=0 / interlaced=0 / bluray_compat=0 / constrained_intra=0 / bframes=3 / b_pyramid=1 / b_adapt=2 / b_bias=0 / direct=3 / weightb=1 / open_gop=0 / weightp=2 / keyint=250 / keyint_min=2 / scenecut=40 / intra_refresh=0 / rc_lookahead=80 / rc=2pass / mbtree=1 / bitrate=1886 / ratetol=1.0 / qcomp=0.80 / qpmin=10 / qpmax=51 / qpstep=4 / cplxblur=20.0 / qblur=0.5 / ip_ratio=1.40 / aq=1:1.00
Language                                 : Chinese
Default                                  : Yes
Forced                                   : No

Audio #1
ID                                       : 2
Format                                   : AC-3
Format/Info                              : Audio Coding 3
Mode extension                           : CM (complete main)
Format settings, Endianness              : Big
Codec ID                                 : A_AC3
Duration                                 : 1 h 34 min
Bit rate mode                            : Constant
Bit rate                                 : 192 kb/s
Channel(s)                               : 2 channels
Channel positions                        : Front: L R
Sampling rate                            : 48.0 kHz
Frame rate                               : 31.250 FPS (1536 spf)
Bit depth                                : 16 bits
Compression mode                         : Lossy
Stream size                              : 130 MiB (9%)
Language                                 : Vietnamese
Default                                  : Yes
Forced                                   : No

Audio #2
ID                                       : 3
Format                                   : AC-3
Format/Info                              : Audio Coding 3
Mode extension                           : CM (complete main)
Format settings, Endianness              : Big
Codec ID                                 : A_AC3
Duration                                 : 1 h 34 min
Bit rate mode                            : Constant
Bit rate                                 : 192 kb/s
Channel(s)                               : 2 channels
Channel positions                        : Front: L R
Sampling rate                            : 48.0 kHz
Frame rate                               : 31.250 FPS (1536 spf)
Bit depth                                : 16 bits
Compression mode                         : Lossy
Stream size                              : 130 MiB (9%)
Title                                    : CHINESE MANDARIN : AC3 2CH 192Kbps
Language                                 : Chinese
Default                                  : No
Forced                                   : No
The Dragon Chronicles The Maidens of Heavenly Mountians 1994 ViE 720p HDTV DD2.0 x264-TLBB screenshots The Dragon Chronicles The Maidens of Heavenly Mountians 1994 ViE 720p HDTV DD2.0 x264-TLBB screenshots The Dragon Chronicles The Maidens of Heavenly Mountians 1994 ViE 720p HDTV DD2.0 x264-TLBB screenshots The Dragon Chronicles The Maidens of Heavenly Mountians 1994 ViE 720p HDTV DD2.0 x264-TLBB screenshots The Dragon Chronicles The Maidens of Heavenly Mountians 1994 ViE 720p HDTV DD2.0 x264-TLBB screenshots The Dragon Chronicles The Maidens of Heavenly Mountians 1994 ViE 720p HDTV DD2.0 x264-TLBB screenshots The Dragon Chronicles The Maidens of Heavenly Mountians 1994 ViE 720p HDTV DD2.0 x264-TLBB screenshots The Dragon Chronicles The Maidens of Heavenly Mountians 1994 ViE 720p HDTV DD2.0 x264-TLBB screenshots 
TitleXin tian long ba bu zhi tian shan tong lao
Year1994
Genre
Rating6 (392 votes)
Plotn/A
DirectorAndy Wing-Keung Chin
CastsBrigitte Lin,Man Cheung,Li Gong,Frankie Lam,Norman Chu…
Runtime96 min
Genres
Xin tian long ba bu zhi tian shan tong lao


Tags

Other releases

Same genre with The Dragon Chronicles The Maidens of Heavenly Mountians 1994 ViE 720p HDTV DD2.0 x264-TLBB

Rangoon 2017 1080p Blu-ray AVC TrueHD 7.1-DDRCriminal 2016 REPACK 720p BluRay DD5.1 x264-SbRFight Back to School Ultimate Collection 1991-1993 1080p BluRay BD-REMUX AVC TrueHD5.1-HDSkyA Dirty Carnival 2006 mHD BluRay DD5.1 x264-TRiM The Impossible 2012 ViE 720p BluRay DD5.1 x264-EbPKingsman: The Secret Service 2014 mHD Bluray DD5.1 x264-TRiM

Comment for The Dragon Chronicles The Maidens of Heavenly Mountians 1994 ViE 720p HDTV DD2.0 x264-TLBB

Only members can create comment.