NetHD.org

The Good Doctor S01 1080p WEB-DL DD+5.1 H.264-QOQ

Download The Good Doctor S01 1080p WEB-DL DD+5.1 H.264-QOQ Free
Small DescriptionShaun Murphy, a young surgeon with autism and savant syndrome, relocates from a quiet country life to join a prestigious hospital surgical unit. Alone in the world and unable to personally connect with those around him, Shaun uses his extraordinary medical gifts to save lives and challenge the skepticism of his colleagues. Written by ahmetkozan
Basic Info
Uploaded byAnonymous at 2018-12-06 14:30:56
Action
Social
  • 0
Hot Meter
  • Views: 165
  • Hits: 20
  • Snatched: 10 x time(s)
  • Last Action: 2019-02-21 20:28:34
Peers3 Seeder | 0 Leecher


General
Unique ID                                : 122230462730914926971088880429405896037 (0x5BF4BB179B9E3AADCBBF9CE0A744FD65)
Format                                   : Matroska
Format version                           : Version 4 / Version 2
File size                                : 3.07 GiB
Duration                                 : 43mn 24s
Overall bit rate mode                    : Variable
Overall bit rate                         : 10.1 Mbps
Encoded date                             : UTC 2017-09-27 11:49:12
Writing application                      : mkvmerge v15.0.0 ('Duel with the Devil') 64-bit
Writing library                          : libebml v1.3.5 + libmatroska v1.4.5

Video
ID                                       : 1
Format                                   : AVC
Format/Info                              : Advanced Video Codec
Format profile                           : High@L4
Format settings                          : CABAC / 4 Ref Frames
Format settings, CABAC                   : Yes
Format settings, ReFrames                : 4 frames
Codec ID                                 : V_MPEG4/ISO/AVC
Duration                                 : 43mn 24s
Bit rate mode                            : Variable
Bit rate                                 : 9 487 Kbps
Maximum bit rate                         : 15.0 Mbps
Width                                    : 1 920 pixels
Height                                   : 1 080 pixels
Display aspect ratio                     : 16:9
Frame rate mode                          : Constant
Frame rate                               : 23.976 (24000/1001) fps
Color space                              : YUV
Chroma subsampling                       : 4:2:0
Bit depth                                : 8 bits
Scan type                                : Progressive
Bits/(Pixel*Frame)                       : 0.191
Stream size                              : 2.88 GiB (94%)
Default                                  : Yes
Forced                                   : No
Color range                              : Limited
Color primaries                          : BT.709
Transfer characteristics                 : BT.709
Matrix coefficients                      : BT.709

Audio
ID                                       : 2
Format                                   : E-AC-3
Format/Info                              : Enhanced Audio Coding 3
Format settings, Endianness              : Big
Codec ID                                 : A_EAC3
Duration                                 : 43mn 24s
Bit rate mode                            : Constant
Bit rate                                 : 640 Kbps
Channel(s)                               : 6 channels
Channel positions                        : Front: L C R, Side: L R, LFE
Sampling rate                            : 48.0 KHz
Frame rate                               : 187.500 fps (256 SPF)
Compression mode                         : Lossy
Stream size                              : 199 MiB (6%)
Language                                 : English
Service kind                             : Complete Main
Default                                  : Yes
Forced                                   : No

Text
ID                                       : 3
Format                                   : UTF-8
Codec ID                                 : S_TEXT/UTF8
Codec ID/Info                            : UTF-8 Plain Text
Duration                                 : 43mn 12s
Bit rate                                 : 66 bps
Count of elements                        : 775
Stream size                              : 21.0 KiB (0%)
Language                                 : English
Default                                  : No
Forced                                   : No

The Good Doctor S01 1080p WEB-DL DD+5.1 H.264-QOQ screenshots The Good Doctor S01 1080p WEB-DL DD+5.1 H.264-QOQ screenshots The Good Doctor S01 1080p WEB-DL DD+5.1 H.264-QOQ screenshots The Good Doctor S01 1080p WEB-DL DD+5.1 H.264-QOQ screenshots The Good Doctor S01 1080p WEB-DL DD+5.1 H.264-QOQ screenshots The Good Doctor S01 1080p WEB-DL DD+5.1 H.264-QOQ screenshots
TitleThe Good Doctor
Year2017
GenreDrama
Rating8.3 (40,800 votes)
PlotShaun Murphy, a young surgeon with autism and savant syndrome, relocates from a quiet country life to join a prestigious hospital surgical unit. Alone in the world and unable to personally connect with those around him, Shaun uses his extraordinary medical gifts to save lives and challenge the skepticism of his colleagues. Written by ahmetkozan
Directorn/A
CastsFreddie Highmore,Nicholas Gonzalez,Antonia Thomas,Tamlyn Tomita,Hill Harper…
Runtime41 min
GenresDrama
The Good Doctor


Teen Titans S01 1080p GP WEB-DL AAC2.0 H.264-DAWN2 Broke Girls S06E11 720p HDTV X264-DIMENSIONModern Family S07E15 720p HDTV x264-AVSArrow S04E01 720p WEB-DL DD5.1 H.264-CtrlHDOutbound Love - Đạt Phi LT - Full 22 TậpThe Walking Dead S09E07 720p HDTV x264-AVS

Only members can create comment.