NetHD.org

The Hangover Trilogy 2009-2013 ViE mHD BluRay DD5.1x264-TRiM

Download The Hangover Trilogy 2009-2013 ViE mHD BluRay DD5.1x264-TRiM 
Small DescriptionBa Gã Ngự Lâm l Trọn bộ 3 phần l Thuyết Minh
Basic Info
Uploaded byAnonymous at 2019-08-08 17:19:13
Action
Hot Meter
  • Views: 467
  • Hits: 161
  • Snatched: 132 x time(s)
  • Last Action: 2019-08-22 19:14:11
Peers53 Seeder | 1 Leecher




Quote
Las Vegas xưa nay nổi danh là chốn ăn chơi xa hoa nhất của nước Mỹ, nơi có những sòng bài luôn mở rộng cửa chào đón khách chơi, có những hộp đêm sáng đèn sặc mùi bia rượu, và đầy rẫy những buổi tiệc độc thân có một không hai.
Doug Billings sắp kết hôn cùng cô bạn gái Tracy Garner, và trước ngày hôn lễ, ba chàng bạn thân Phil Wenneck, Stu Price, và cậu em rể Alan Garner quyết phải cùng Doug trải qua một buổi tiệc độc thân nhớ đời, theo đúng cách của các chàng trai Mỹ vẫn làm.
Mọi việc bất ngờ trở nên tồi tệ khi Phil, Stu và Alan thức dậy sau một đêm quậy tưng bừng và phát hiện anh bạn Doug đã mất tích, trong phòng tắm có một con hổ, chàng nha sĩ Stu mất một chiếc răng, còn trong tủ áo thì đột nhiên xuất hiện thêm một đứa bé.
Không thể liên lạc được với Doug, cũng như không nhớ nổi chuyện gì đã xảy ra vào tối hôm trước, cả ba bắt đầu lần tìm từ những manh mối còn sót lại trong phòng. Nguy cơ chú rể mất tích trong lễ cưới và hôn lễ phải hủy bỏ càng khiến cả ba càng lo lắng. Trên đường truy tìm tông tích Doug, bao chuyện bi hài tréo ngoe đã diễn ra với bộ ba.
Bị truy sát bởi một nhóm giang hồ, chiến đấu với hổ dữ, đụng độ Mike Tyson, đột nhiên mang món nợ 80.000 USD, hành trình của ba chàng trai: Phil chán hôn nhân, Stu quen bị bạn gái kềm cập, Alan trẻ con trong lốt gã bụng phệ râu ria trở nên ly kỳ bởi những sự việc không biết đã xảy ra khi nào và như thế nào.




Quote
Complete name                  : The Hangover 2009 ViE mHD BluRay DD5.1x264-TRiM
Format                         : Matroska
Format version                 : Version 2
File size                      : 2.04 GiB
Duration                       : 1 h 47 min
Overall bit rate               : 2 712 kb/s
Encoded date                   : UTC 2019-08-06 03:12:36
Writing application            : mkvmerge v5.5.0 ('Healer') built on Apr  6 2012 21:43:24
Writing library                : libebml v1.2.3 + libmatroska v1.3.0


Video
ID                             : 2
Format                         : AVC
Format/Info                    : Advanced Video Codec
Format profile                 : High@L4.1
Format settings, CABAC         : Yes
Format settings, RefFrames     : 5 frames
Muxing mode                    : Header stripping
Codec ID                       : V_MPEG4/ISO/AVC
Duration                       : 1 h 47 min
Bit rate                       : 2 135 kb/s
Width                          : 1 280 pixels
Height                         : 534 pixels
Display aspect ratio           : 2.40:1
Frame rate mode                : Constant
Frame rate                     : 23.976 FPS
Color space                    : YUV
Chroma subsampling             : 4:2:0
Bit depth                      : 8 bits
Scan type                      : Progressive
Bits/(Pixel*Frame)             : 0.130
Stream size                    : 1.57 GiB (77%)
Writing library                : x264 core 77 r1292 e381f6d
Encoding settings              : cabac=1 / ref=5 / deblock=1:-3:-3 / analyse=0x3:0x113 / me=umh / subme=7 / psy=1 / psy_rd=1.0:0.0 / mixed_ref=1 / me_range=24 / chroma_me=1 / trellis=2 / 8x8dct=1 / cqm=2 / deadzone=21,11 / chroma_qp_offset=-2 / threads=4 / nr=0 / decimate=1 / mbaff=0 / constrained_intra=0 / bframes=3 / b_pyramid=0 / b_adapt=2 / b_bias=0 / direct=3 / wpredb=1 / keyint=250 / keyint_min=25 / scenecut=40 / rc_lookahead=40 / rc=2pass / mbtree=1 / bitrate=2135 / ratetol=1.0 / qcomp=0.60 / qpmin=10 / qpmax=51 / qpstep=4 / cplxblur=20.0 / qblur=0.5 / vbv_maxrate=50000 / vbv_bufsize=50000 / ip_ratio=1.40 / aq=1:1.00
Language                       : English
Default                        : Yes
Forced                         : No


Audio #1
ID                             : 1
Format                         : MPEG Audio
Format version                 : Version 1
Format profile                 : Layer 3
Mode                           : Joint stereo
Muxing mode                    : Header stripping
Codec ID                       : A_MPEG/L3
Codec ID/Hint                  : MP3
Duration                       : 1 h 47 min
Bit rate mode                  : Constant
Bit rate                       : 320 kb/s
Channel(s)                     : 2 channels
Sampling rate                  : 48.0 kHz
Compression mode               : Lossy
Stream size                    : 247 MiB (12%)
Writing library                : LAME3.99.5
Language                       : Vietnamese
Default                        : Yes
Forced                         : Yes


Audio #2
ID                             : 3
Format                         : AC-3
Format/Info                    : Audio Coding 3
Format settings, Endianness    : Big
Muxing mode                    : Header stripping
Codec ID                       : A_AC3
Duration                       : 1 h 47 min
Bit rate mode                  : Constant
Bit rate                       : 256 kb/s
Channel(s)                     : 6 channels
Channel positions              : Front: L C R, Side: L R, LFE
Sampling rate                  : 48.0 kHz
Frame rate                     : 31.250 FPS (1536 SPF)
Bit depth                      : 16 bits
Compression mode               : Lossy
Stream size                    : 198 MiB (9%)
Language                       : English
Service kind                   : Complete Main
Default                        : No
Forced                         : No




The Hangover Trilogy 2009-2013 ViE mHD BluRay DD5.1x264-TRiM screenshots The Hangover Trilogy 2009-2013 ViE mHD BluRay DD5.1x264-TRiM screenshots The Hangover Trilogy 2009-2013 ViE mHD BluRay DD5.1x264-TRiM screenshots The Hangover Trilogy 2009-2013 ViE mHD BluRay DD5.1x264-TRiM screenshots The Hangover Trilogy 2009-2013 ViE mHD BluRay DD5.1x264-TRiM screenshots The Hangover Trilogy 2009-2013 ViE mHD BluRay DD5.1x264-TRiM screenshots

TitleThe Hangover
Year2009
GenreComedy
Rating7.7 (675,678 votes)
PlotAngelenos Doug Billings and Tracy Garner are about to get married. Two days before the wedding, the four men in the wedding party - Doug, Doug's two best buddies Phil Wenneck and Stu Price, and Tracy's brother Alan Garner - hop into Tracy's father's beloved Mercedes convertible for a 24-hour stag party to Las Vegas. Phil, a married high school teacher, has the same maturity level as his students when he's with his pals. Stu, a dentist, is worried about everything, especially what his…
DirectorTodd Phillips
CastsBradley Cooper,Ed Helms,Zach Galifianakis,Justin Bartha,Heather Graham…
Runtime100 min
The Hangover


Serial (Bad) Weddings 2014 720p BluRay DD5.1 x264-VietHDCover Girl 1944 720p BluRay FLAC x264 EbPWhip It 2009 1080p Blu-ray AC3 x264-CtrlHDThe Disaster Artist 2017 1080p BluRay DD5.1 x264-ZQTromeo and Juliet 1996 720p BluRay AC3-HaB_hdbFour Weddings and a Funeral 1994 mHD BluRay DD5.1 x264-TRiM

Only members can create comment.