NetHD.org

The Immortal 2018 720p WEB-DL

Download The Immortal 2018 720p WEB-DL 
Small DescriptionNgười Bất Tử_Victor Vũ
Basic Info
Uploaded bytranphan (Elite User) at 2019-03-14 14:02:34
Action
Social
  • 27
Hot Meter
  • Views: 1420
  • Hits: 510
  • Snatched: 431 x time(s)
  • Last Action: 2019-03-23 17:08:58
Peers128 Seeder | 0 Leecher


Chúng ta chỉ tới với cuộc đời một lần.
Những lần sau là nhờ một cuộc đời khác!

Media Info:
General
Complete name               : G:\film\The Immortal\Nguoi Bat Tu_The Immortal 2018 720p WEB-DL.mp4
Format                      : MPEG-4
Format profile              : Base Media
Codec ID                    : isom (isom/iso2/avc1/mp41)
File size                   : 2.70 GiB
Duration                    : 2 h 10 min
Overall bit rate mode       : Variable
Overall bit rate            : 2 965 kb/s
Writing application         : Bandicut 1.0 (Lavf54.29.104)

Video
ID                          : 1
Format                      : AVC
Format/Info                 : Advanced Video Codec
Format profile              : High@L3.1
Format settings, CABAC      : Yes
Format settings, ReFrames   : 4 frames
Format settings, GOP        : M=1, N=90
Codec ID                    : avc1
Codec ID/Info               : Advanced Video Coding
Duration                    : 2 h 10 min
Duration_FirstFrame         : 46 ms
Bit rate mode               : Variable
Bit rate                    : 2 754 kb/s
Maximum bit rate            : 8 115 kb/s
Width                       : 1 280 pixels
Height                      : 720 pixels
Display aspect ratio        : 16:9
Frame rate mode             : Constant
Frame rate                  : 30.000 FPS
Color space                 : YUV
Chroma subsampling          : 4:2:0
Bit depth                   : 8 bits
Scan type                   : Progressive
Bits/(Pixel*Frame)          : 0.100
Stream size                 : 2.51 GiB (93%)

Audio
ID                          : 2
Format                      : AAC
Format/Info                 : Advanced Audio Codec
Format profile              : LC
Codec ID                    : 40
Duration                    : 2 h 10 min
Bit rate mode               : Constant
Bit rate                    : 204 kb/s
Channel(s)                  : 2 channels
Channel positions           : Front: L R
Sampling rate               : 44.1 kHz
Frame rate                  : 43.066 FPS (1024 spf)
Compression mode            : Lossy
Stream size                 : 190 MiB (7%)
Default                     : Yes
Alternate group             : 1


Screenshots:
The Immortal 2018 720p WEB-DL screenshots
The Immortal 2018 720p WEB-DL screenshots
The Immortal 2018 720p WEB-DL screenshots
The Immortal 2018 720p WEB-DL screenshots
The Immortal 2018 720p WEB-DL screenshots
The Immortal 2018 720p WEB-DL screenshots
TitleThe Immortal
Year2018
Genre
Rating6.9 (110 votes)
Plotn/A
DirectorVictor Vu
CastsNgoc Diep,Quach Ngoc Ngoan
Runtime132 min
Genres
The Immortal


Insensibles 2012 1080p Blu-Ray AVC DTS-HD MA 5.1-fantome13The Ghostmaker 2012 1080p BluRay DTS x264-VETOBlacKkKlansman 2018 1080p BluRay DD5.1 x264-SbRZombie Massacre 2 Reich of the Dead 2015 720p BluRay x264-RUSTEDPoltergeist Extended Cut 2015 mHD BluRay DD5.1 x264-TRiMVooDoo 2017 1080p WEB-DL DD5.1 H.264-FGT

Only members can create comment.