NetHD.org

The Last Black Man in San Francisco 2019 1080p WEB-DL H264 AC3-EVO

Download The Last Black Man in San Francisco 2019 1080p WEB-DL H264 AC3-EVO 
Small DescriptionA young man searches for home in the changing city that seems to have left him behind.
Basic Info
Uploaded byvuquanhuan (User) at 2019-08-13 23:11:53
Action
Hot Meter
  • Views: 68
  • Hits: 9
  • Snatched: 4 x time(s)
  • Last Action: 2019-08-22 13:39:08
Peers2 Seeder | 0 Leecher



Quote
Video
ID                                       : 2
Format                                   : AVC
Format/Info                              : Advanced Video Codec
Format profile                           : High@L4
Format settings, CABAC                   : Yes
Format settings, ReFrames                : 4 frames
Codec ID                                 : V_MPEG4/ISO/AVC
Duration                                 : 2h 0mn
Bit rate                                 : 4 918 Kbps
Width                                    : 1 794 pixels
Height                                   : 1 080 pixels
Display aspect ratio                     : 5:3
Frame rate mode                          : Constant
Frame rate                               : 23.976 (24000/1001) fps
Color space                              : YUV
Chroma subsampling                       : 4:2:0
Bit depth                                : 8 bits
Scan type                                : Progressive
Bits/(Pixel*Frame)                       : 0.106
Stream size                              : 4.15 GiB (91%)
Language                                 : English
Default                                  : Yes
Forced                                   : No
Color range                              : Limited
Color primaries                          : BT.709
Transfer characteristics                 : BT.709
Matrix coefficients                      : BT.709

Audio
ID                                       : 1
Format                                   : AC-3
Format/Info                              : Audio Coding 3
Mode extension                           : CM (complete main)
Format settings, Endianness              : Big
Codec ID                                 : A_AC3
Duration                                 : 2h 0mn
Bit rate mode                            : Constant
Bit rate                                 : 384 Kbps
Channel(s)                               : 6 channels
Channel positions                        : Front: L C R, Side: L R, LFE
Sampling rate                            : 48.0 KHz
Frame rate                               : 31.250 fps (1536 spf)
Compression mode                         : Lossy
Stream size                              : 331 MiB (7%)
Language                                 : English
Default                                  : Yes
Forced                                   : No

Menu
00:00:00.000                             : en:1
00:06:23.133                             : en:2
00:14:36.209                             : en:3
00:22:47.992                             : en:4
00:30:48.055                             : en:5
00:37:30.790                             : en:6
00:44:20.907                             : en:7
00:51:30.294                             : en:8
00:58:04.187                             : en:9
01:05:17.620                             : en:10
01:12:57.912                             : en:11
01:21:22.499                             : en:12
01:27:28.322                             : en:13
01:39:44.141                             : en:14
01:45:34.241                             : en:15
01:50:11.100                             : en:16


The Last Black Man in San Francisco 2019 1080p WEB-DL H264 AC3-EVO screenshots The Last Black Man in San Francisco 2019 1080p WEB-DL H264 AC3-EVO screenshots The Last Black Man in San Francisco 2019 1080p WEB-DL H264 AC3-EVO screenshots The Last Black Man in San Francisco 2019 1080p WEB-DL H264 AC3-EVO screenshots The Last Black Man in San Francisco 2019 1080p WEB-DL H264 AC3-EVO screenshots The Last Black Man in San Francisco 2019 1080p WEB-DL H264 AC3-EVO screenshots The Last Black Man in San Francisco 2019 1080p WEB-DL H264 AC3-EVO screenshots The Last Black Man in San Francisco 2019 1080p WEB-DL H264 AC3-EVO screenshots The Last Black Man in San Francisco 2019 1080p WEB-DL H264 AC3-EVO screenshots The Last Black Man in San Francisco 2019 1080p WEB-DL H264 AC3-EVO screenshots
TitleThe Last Black Man in San Francisco
Year2019
GenreDrama
Rating7.7 (2,503 votes)
Plotn/A
DirectorJoe Talbot
CastsJimmie Fails,Jonathan Majors,Danny Glover,Tichina Arnold,Rob Morgan…
Runtime121 min
The Last Black Man in San Francisco


Love and Other Impossible Pursuits 2009 1080p BluRay DD5.1 x264-SA89Yat nim mou ming 2016 720p BluRay DD5.1 x264-VietHDLes adoptés 2011 720p BluRay DD5.1 x264-VietHDUnforgettable 2016 mHD Bluray DD5.1 x264-TRiMBe My Slave 2012.1080p BluRay DD5.1 x264-WiKiFrost/Nixon 2008 720p BluRay DTS x264-DON

Only members can create comment.