NetHD.org

The Matador 2005 1080p BluRay DD5.1 x264

Download The Matador 2005 1080p BluRay DD5.1 x264 
Small DescriptionA chance encounter between a travelling salesman and a lonely hitman triggers a strangely profound relationship which provokes each to act in ways neither would have imagined possible. Fate steps in to form a friendship between two men from irreconcilable worlds that will alter the lives of both forever. Written by Arclight Films
Basic Info
Uploaded byAnonymous at 2018-10-12 09:19:22
Action
Social
  • 1
Hot Meter
  • Views: 258
  • Hits: 15
  • Snatched: 4 x time(s)
  • Last Action: 2019-01-28 13:42:25
Peers0 Seeder | 0 Leecher


The Matador 2005 1080p BluRay DD5.1 x264 screenshots













The Matador 2005 1080p BluRay DD5.1 x264 screenshots


General
Unique ID                                : 204627522828812417615928864836971492969 (0x99F1D3CE4519B5C2A7D1972A2BE57669)
Complete name                            : F:\MOVIE\The.Matador.2005.BDRip.1080p.mkv
Format                                   : Matroska
Format version                           : Version 4 / Version 2
File size                                : 9.15 GiB
Duration                                 : 1 h 37 min
Overall bit rate                         : 13.4 Mb/s
Encoded date                             : UTC 2018-10-11 00:01:22
Writing application                      : mkvmerge v7.1.0 ('Good Love') 64bit built on Jul 27 2014 13:06:55
Writing library                          : libebml v1.3.0 + libmatroska v1.4.1

Video
ID                                       : 1
Format                                   : AVC
Format/Info                              : Advanced Video Codec
Format profile                           : High@L4.1
Format settings                          : CABAC / 5 Ref Frames
Format settings, CABAC                   : Yes
Format settings, RefFrames               : 5 frames
Codec ID                                 : V_MPEG4/ISO/AVC
Duration                                 : 1 h 37 min
Bit rate                                 : 12.5 Mb/s
Width                                    : 1 920 pixels
Height                                   : 816 pixels
Display aspect ratio                     : 2.35:1
Frame rate mode                          : Constant
Frame rate                               : 23.976 (24000/1001) FPS
Color space                              : YUV
Chroma subsampling                       : 4:2:0
Bit depth                                : 8 bits
Scan type                                : Progressive
Bits/(Pixel*Frame)                       : 0.333
Stream size                              : 8.53 GiB (93%)
Writing library                          : x264 core 140 r2377 1ca7bb9
Encoding settings                        : cabac=1 / ref=5 / deblock=1:-1:-1 / analyse=0x3:0x133 / me=umh / subme=11 / psy=1 / psy_rd=1.01:0.00 / mixed_ref=1 / me_range=48 / chroma_me=1 / trellis=2 / 8x8dct=1 / cqm=0 / deadzone=21,11 / fast_pskip=0 / chroma_qp_offset=-3 / threads=12 / lookahead_threads=2 / sliced_threads=0 / nr=0 / decimate=1 / interlaced=0 / bluray_compat=0 / constrained_intra=0 / bframes=9 / b_pyramid=2 / b_adapt=2 / b_bias=0 / direct=3 / weightb=1 / open_gop=0 / weightp=2 / keyint=240 / keyint_min=23 / scenecut=40 / intra_refresh=0 / rc_lookahead=60 / rc=2pass / mbtree=1 / bitrate=12499 / ratetol=1.0 / qcomp=0.75 / qpmin=0 / qpmax=69 / qpstep=4 / cplxblur=20.0 / qblur=0.5 / vbv_maxrate=50000 / vbv_bufsize=78125 / nal_hrd=none / filler=0 / ip_ratio=1.40 / aq=1:1.00
Language                                 : English
Default                                  : Yes
Forced                                   : No
Color range                              : Limited
Color primaries                          : BT.709
Transfer characteristics                 : BT.709
Matrix coefficients                      : BT.709

Audio #1
ID                                       : 2
Format                                   : AC-3
Format/Info                              : Audio Coding 3
Codec ID                                 : A_AC3
Duration                                 : 1 h 37 min
Bit rate mode                            : Constant
Bit rate                                 : 448 kb/s
Channel(s)                               : 6 channels
Channel positions                        : Front: L C R, Side: L R, LFE
Sampling rate                            : 48.0 kHz
Frame rate                               : 31.250 FPS (1536 SPF)
Bit depth                                : 16 bits
Compression mode                         : Lossy
Stream size                              : 313 MiB (3%)
Title                                    : [Лицензия] R5
Language                                 : Russian
Service kind                             : Complete Main
Default                                  : Yes
Forced                                   : No

Audio #2
ID                                       : 3
Format                                   : AC-3
Format/Info                              : Audio Coding 3
Codec ID                                 : A_AC3
Duration                                 : 1 h 37 min
Bit rate mode                            : Constant
Bit rate                                 : 448 kb/s
Channel(s)                               : 6 channels
Channel positions                        : Front: L C R, Side: L R, LFE
Sampling rate                            : 48.0 kHz
Frame rate                               : 31.250 FPS (1536 SPF)
Bit depth                                : 16 bits
Compression mode                         : Lossy
Stream size                              : 313 MiB (3%)
Language                                 : English
Service kind                             : Complete Main
Default                                  : No
Forced                                   : No

Text #1
ID                                       : 4
Format                                   : UTF-8
Codec ID                                 : S_TEXT/UTF8
Codec ID/Info                            : UTF-8 Plain Text
Duration                                 : 1 h 31 min
Bit rate                                 : 72 b/s
Count of elements                        : 1012
Stream size                              : 48.5 KiB (0%)
Language                                 : Russian
Default                                  : No
Forced                                   : No

Text #2
ID                                       : 5
Format                                   : UTF-8
Codec ID                                 : S_TEXT/UTF8
Codec ID/Info                            : UTF-8 Plain Text
Duration                                 : 1 h 31 min
Bit rate                                 : 55 b/s
Count of elements                        : 1011
Stream size                              : 37.0 KiB (0%)
Language                                 : English
Default                                  : No
Forced                                   : No

Menu
00:00:00.000                             : en:00:00:00.000
00:02:43.663                             : en:00:02:43.663
00:04:33.023                             : en:00:04:33.023
00:06:02.696                             : en:00:06:02.696
00:09:31.070                             : en:00:09:31.070
00:12:48.434                             : en:00:12:48.434
00:15:26.467                             : en:00:15:26.467
00:17:28.214                             : en:00:17:28.214
00:24:09.239                             : en:00:24:09.239
00:27:45.163                             : en:00:27:45.163
00:33:33.136                             : en:00:33:33.136
00:39:20.775                             : en:00:39:20.775
00:45:35.816                             : en:00:45:35.816
00:51:07.940                             : en:00:51:07.940
00:52:40.157                             : en:00:52:40.157
00:55:43.382                             : en:00:55:43.382
01:02:24.282                             : en:01:02:24.282
01:14:08.444                             : en:01:14:08.444
01:19:36.897                             : en:01:19:36.897
01:24:13.715                             : en:01:24:13.715
01:27:19.067                             : en:01:27:19.067
01:33:33.817                             : en:01:33:33.817













The Matador 2005 1080p BluRay DD5.1 x264 screenshots


The Matador 2005 1080p BluRay DD5.1 x264 screenshotsThe Matador 2005 1080p BluRay DD5.1 x264 screenshotsThe Matador 2005 1080p BluRay DD5.1 x264 screenshots
The Matador 2005 1080p BluRay DD5.1 x264 screenshotsThe Matador 2005 1080p BluRay DD5.1 x264 screenshotsThe Matador 2005 1080p BluRay DD5.1 x264 screenshots

TitleThe Matador
Year2005
Genre
Rating6.8 (42,650 votes)
PlotA chance encounter between a travelling salesman and a lonely hitman triggers a strangely profound relationship which provokes each to act in ways neither would have imagined possible. Fate steps in to form a friendship between two men from irreconcilable worlds that will alter the lives of both forever. Written by Arclight Films
DirectorRichard Shepard
CastsPierce Brosnan,Arlin Miller,Azucena Medina,Jonah Meyerson,Wiveca Bonerais…
Runtime96 min
The Matador


Red Herring 2015 ViE 720p WEB-DL DD5.1 H.264-ETRGFargo 1996 1080p BluRay DTS x264-DONLondon Fields 2018 AMZN 1080p WEBRip DD5.1 x264-TeamHDChoose 2011 720p BluRay DD5.1 x264-VietHDCon nuôi ViE HDTV AAC2.0 H.264-NTVDaughter of the Nile 1987 MoC BluRay 1080p LPCM x264-CMCT

Only members can create comment.