NetHD.org

Nâng Cấp RatioTài Khoản VIPDonate VDP

The Million Dollar Hotel 2000 1080p BluRay DTS x264-CtrlHD

Download The Million Dollar Hotel 2000 1080p BluRay DTS x264-CtrlHD 
Descriptioninternal HDB encode
Basic Info
Uploaded byNúp Lùm at 2021-01-14 13:44:27
Action
Hot Meter
  • Views: 59
  • Hits: 13
  • Snatched: 10 x time(s)
  • Last Action: 2021-01-25 03:18:09
Peers7 Seeder | 0 Leecher
  • 0



The Million Dollar Hotel 2000 1080p BluRay DTS x264-CtrlHD screenshots



Trích dẫn
General
Unique ID                                : 247905500911533384922821142032805089069 (0xBA80DCDDBBC358908FA6F3F7A2A54F2D)
Complete name                            : /sdh/0047/downloads/watch/Torrente/The.Million.Dollar.Hotel.2000.1080p.BluRay.DTS.x264-CtrlHD/The.Million.Dollar.Hotel.2000.1080p.BluRay.DTS.x264-CtrlHD.mkv
Format                                   : Matroska
Format version                           : Version 2
File size                                : 16.2 GiB
Duration                                 : 2h 2mn
Overall bit rate                         : 18.9 Mbps
Movie name                               : The.Million.Dollar.Hotel.2000.1080p.BluRay.DTS.x264-CtrlHD
Encoded date                             : UTC 2012-07-27 09:23:47
Writing application                      : mkvmerge v3.4.0 ('Rapunzel') built on May 15 2010 09:38:20
Writing library                          : libebml v0.8.0 + libmatroska v0.9.0

Video
ID                                       : 1
Format                                   : AVC
Format/Info                              : Advanced Video Codec
Format profile                           : High@L4.1
Format settings, CABAC                   : Yes
Format settings, ReFrames                : 5 frames
Codec ID                                 : V_MPEG4/ISO/AVC
Duration                                 : 2h 2mn
Bit rate                                 : 17.0 Mbps
Width                                    : 1 920 pixels
Height                                   : 816 pixels
Display aspect ratio                     : 2.35:1
Frame rate mode                          : Constant
Frame rate                               : 23.976 (24000/1001) fps
Color space                              : YUV
Chroma subsampling                       : 4:2:0
Bit depth                                : 8 bits
Scan type                                : Progressive
Bits/(Pixel*Frame)                       : 0.453
Stream size                              : 14.6 GiB (90%)
Writing library                          : x264 core 125 r2208kMod d9d2288
Encoding settings                        : cabac=1 / ref=5 / deblock=1:-3:-3 / analyse=0x3:0x113 / me=umh / subme=11 / psy=1 / fade_compensate=0.00 / psy_rd=1.20:0.00 / mixed_ref=1 / me_range=16 / chroma_me=1 / trellis=2 / 8x8dct=1 / cqm=0 / deadzone=21,11 / fast_pskip=0 / chroma_qp_offset=-2 / threads=6 / lookahead_threads=1 / sliced_threads=0 / nr=0 / decimate=0 / interlaced=0 / bluray_compat=0 / constrained_intra=0 / bframes=8 / b_pyramid=2 / b_adapt=2 / b_bias=0 / direct=3 / weightb=1 / open_gop=0 / weightp=2 / keyint=250 / keyint_min=23 / scenecut=40 / intra_refresh=0 / rc=crf / mbtree=0 / crf=18.0000 / qcomp=0.80 / qpmin=0 / qpmax=69 / qpstep=4 / ip_ratio=1.30 / pb_ratio=1.20 / aq=1:0.80
Language                                 : English
Default                                  : No
Forced                                   : No

Audio
ID                                       : 2
Format                                   : DTS
Format/Info                              : Digital Theater Systems
Mode                                     : 16
Format settings, Endianness              : Big
Codec ID                                 : A_DTS
Duration                                 : 2h 2mn
Bit rate mode                            : Constant
Bit rate                                 : 1 509 Kbps
Channel(s)                               : 6 channels
Channel positions                        : Front: L C R, Side: L R, LFE
Sampling rate                            : 48.0 KHz
Frame rate                               : 93.750 fps (512 spf)
Bit depth                                : 24 bits
Compression mode                         : Lossy
Stream size                              : 1.29 GiB (8%)
Language                                 : English
Default                                  : Yes
Forced                                   : No

Menu
00:00:00.000                             : en:Chapter 1
00:02:48.543                             : en:Chapter 2
00:06:19.462                             : en:Chapter 3
00:10:41.432                             : en:Chapter 4
00:12:42.595                             : en:Chapter 5
00:16:05.548                             : en:Chapter 6
00:22:06.700                             : en:Chapter 7
00:25:01.458                             : en:Chapter 8
00:28:01.680                             : en:Chapter 9
00:32:28.530                             : en:Chapter 10
00:37:11.396                             : en:Chapter 11
00:43:37.532                             : en:Chapter 12
00:50:40.663                             : en:Chapter 13
01:03:14.207                             : en:Chapter 14
01:06:54.177                             : en:Chapter 15
01:12:32.390                             : en:Chapter 16
01:19:25.803                             : en:Chapter 17
01:24:17.135                             : en:Chapter 18
01:27:58.565                             : en:Chapter 19
01:34:10.061                             : en:Chapter 20
01:38:20.603                             : en:Chapter 21
01:43:21.612                             : en:Chapter 22
01:48:56.488                             : en:Chapter 23
01:56:34.196                             : en:Chapter 24



The Million Dollar Hotel 2000 1080p BluRay DTS x264-CtrlHD screenshots The Million Dollar Hotel 2000 1080p BluRay DTS x264-CtrlHD screenshots The Million Dollar Hotel 2000 1080p BluRay DTS x264-CtrlHD screenshots



TitleThe Million Dollar Hotel
Year2000
GenreDrama
Rating5.9 (20,800 votes)
PlotThe Million Dollar Hotel follows the supposed murder of Izzy Goldkiss. FBI Agent Skinner is sent into investigate the crime, and to weed out the killer. When he reaches the 'hotel', he comes across many of the forgotten types of people living in the city. You have Geronimo, who is a self proclaimed Native American artist. Dixie, played with great gusto by Peter Stormare, as the 'fifth' Beatle still waiting for his royalty payments as well as recognition. Eloise, who is the neighborhood 'whore'.
DirectorWim Wenders
CastsJeremy Davies / Milla Jovovich / Mel Gibson / Jimmy Smits / Peter Stormare…
Runtime122 min
The Million Dollar Hotel

No keyword! (Click to edit!)

One from the Heart 1982 720p BluRay DTS x264-VietHDWildling 2018 1080p BluRay DTS x264-LoRDEl Chicano 2018 mHD BluRay DD5.1 x264-TRiMLovecut 2020 1080p Blu-ray AVC DTS-HD MA 5.1-SAViOURHDFlatliners 1990 mHD BluRay DD5.1 x264-TRiMA Dark Place 2018 720p BluRay DD5.1 x264-SillyBird