The Mummy Trilogy 1999-2008 1080p Blu-ray VC-1 DTS-HD MA 5.1-LKS

Download The Mummy Trilogy 1999-2008 1080p Blu-ray VC-1 DTS-HD MA 5.1-LKS Free
Small DescriptionBST Phim Xác Ướp
Basic Info
Uploaded byAnonymous at 2017-05-22 07:55:14
Action
Social
  • 5
Hot Meter
  • Views: 363
  • Hits: 30
  • Snatched: 3 x time(s)
  • Last Action: 2018-07-18 19:24:20
Peers0 Seeder | 1 Leecher
The Mummy Trilogy 1999-2008 1080p Blu-ray VC-1 DTS-HD MA 5.1-LKS screenshots



Quote
DISC INFO:

Disc Title:     MUMMY_G51
Disc Size:      36,943,863,606 bytes
Protection:     AACS
BD-Java:        Yes
BDInfo:         0.5.8

PLAYLIST REPORT:

Name:                   00000.MPLS
Length:                 2:04:45.478 (h:m:s.ms)
Size:                   32,164,294,656 bytes
Total Bitrate:          34.38 Mbps

VIDEO:

Codec                   Bitrate             Description    
-----                   -------             -----------    
VC-1 Video              21032 kbps          1080p / 23.976 fps / 16:9 / Advanced Profile 3
VC-1 Video              943 kbps            480p / 23.976 fps / 4:3 / Advanced Profile 2

AUDIO:

Codec                           Language        Bitrate         Description    
-----                           --------        -------         -----------    
DTS Audio                       Japanese        768 kbps        5.1 / 48 kHz / 768 kbps / 24-bit
DTS-HD Master Audio             English         4652 kbps       5.1 / 48 kHz / 4652 kbps / 24-bit (DTS Core: 5.1 / 48 kHz / 1509 kbps / 24-bit)
DTS Audio                       French          768 kbps        5.1 / 48 kHz / 768 kbps / 24-bit
DTS Audio                       Italian         768 kbps        5.1 / 48 kHz / 768 kbps / 24-bit
DTS Audio                       German          768 kbps        5.1 / 48 kHz / 768 kbps / 24-bit
DTS Audio                       Spanish         768 kbps        5.1 / 48 kHz / 768 kbps / 24-bit
Dolby Digital Audio             English         192 kbps        2.0 / 48 kHz / 192 kbps / DN -4dB / Dolby Surround
Dolby Digital Audio             English         192 kbps        2.0 / 48 kHz / 192 kbps / DN -4dB / Dolby Surround
Dolby Digital Audio             English         192 kbps        2.0 / 48 kHz / 192 kbps / DN -4dB / Dolby Surround
DTS Express                     English         192 kbps        2.0 / 48 kHz / 192 kbps / 24-bit

SUBTITLES:

Codec                           Language        Bitrate         Description    
-----                           --------        -------         -----------    
Presentation Graphics           Japanese        15.879 kbps                    
Presentation Graphics           English         30.812 kbps                    
Presentation Graphics           French          23.136 kbps                    
Presentation Graphics           Italian         22.942 kbps                    
Presentation Graphics           German          24.862 kbps                    
Presentation Graphics           Spanish         23.952 kbps                    
Presentation Graphics           Dutch           23.249 kbps                    
Presentation Graphics           Korean          17.791 kbps                    
Presentation Graphics           Swedish         19.902 kbps                    
Presentation Graphics           Danish          22.560 kbps                    
Presentation Graphics           Finnish         20.619 kbps                    
Presentation Graphics           Norwegian       22.963 kbps                    
Presentation Graphics           Portuguese      23.603 kbps                    
Presentation Graphics           Chinese         18.431 kbps                    
Presentation Graphics           Japanese        35.568 kbps                    
Presentation Graphics           Japanese        17.090 kbps                    
Presentation Graphics           Norwegian       41.395 kbps                    
Presentation Graphics           Portuguese      43.201 kbps                    
Presentation Graphics           Japanese        34.140 kbps                    
Presentation Graphics           French          59.194 kbps                    
Presentation Graphics           Italian         52.678 kbps                    
Presentation Graphics           German          63.620 kbps                    
Presentation Graphics           Spanish         59.828 kbps                    
Presentation Graphics           Japanese        18.314 kbps                    
Presentation Graphics           English         21.861 kbps                    
Presentation Graphics           French          21.658 kbps                    
Presentation Graphics           Italian         22.127 kbps                    
Presentation Graphics           German          24.468 kbps                    
Presentation Graphics           Spanish         20.552 kbps                    
Presentation Graphics           Dutch           20.890 kbps                    
Presentation Graphics           Portuguese      21.847 kbps                    
Presentation Graphics           Japanese        0.725 kbps                      

FILES:

Name            Time In         Length          Size            Total Bitrate  
----            -------         ------          ----            -------------  
00000.M2TS      0:00:00.000     2:04:45.478     32,164,294,656  34,375




The Mummy Trilogy 1999-2008 1080p Blu-ray VC-1 DTS-HD MA 5.1-LKS screenshots The Mummy Trilogy 1999-2008 1080p Blu-ray VC-1 DTS-HD MA 5.1-LKS screenshots The Mummy Trilogy 1999-2008 1080p Blu-ray VC-1 DTS-HD MA 5.1-LKS screenshots The Mummy Trilogy 1999-2008 1080p Blu-ray VC-1 DTS-HD MA 5.1-LKS screenshots



[hr]


The Mummy Trilogy 1999-2008 1080p Blu-ray VC-1 DTS-HD MA 5.1-LKS screenshots



Quote
DISC INFO:

Disc Title:     MUMMY_RETURNS_G51
Disc Size:      38,040,878,858 bytes
Protection:     AACS
BD-Java:        Yes
BDInfo:         0.5.8

PLAYLIST REPORT:

Name:                   00000.MPLS
Length:                 2:09:31.764 (h:m:s.ms)
Size:                   32,761,829,376 bytes
Total Bitrate:          33.72 Mbps

VIDEO:

Codec                   Bitrate             Description    
-----                   -------             -----------    
VC-1 Video              21629 kbps          1080p / 23.976 fps / 16:9 / Advanced Profile 3
VC-1 Video              710 kbps            480p / 23.976 fps / 4:3 / Advanced Profile 2

AUDIO:

Codec                           Language        Bitrate         Description    
-----                           --------        -------         -----------    
DTS Audio                       Japanese        768 kbps        5.1 / 48 kHz / 768 kbps / 24-bit
DTS-HD Master Audio             English         4555 kbps       5.1 / 48 kHz / 4555 kbps / 24-bit (DTS Core: 5.1 / 48 kHz / 1509 kbps / 24-bit)
DTS Audio                       French          768 kbps        5.1 / 48 kHz / 768 kbps / 24-bit
DTS Audio                       Italian         768 kbps        5.1 / 48 kHz / 768 kbps / 24-bit
DTS Audio                       German          768 kbps        5.1 / 48 kHz / 768 kbps / 24-bit
DTS Audio                       Spanish         768 kbps        5.1 / 48 kHz / 768 kbps / 24-bit
Dolby Digital Audio             English         192 kbps        2.0 / 48 kHz / 192 kbps / DN -4dB / Dolby Surround
DTS Express                     English         192 kbps        2.0 / 48 kHz / 192 kbps / 24-bit

SUBTITLES:

Codec                           Language        Bitrate         Description    
-----                           --------        -------         -----------    
Presentation Graphics           Japanese        13.319 kbps                    
Presentation Graphics           English         24.040 kbps                    
Presentation Graphics           French          19.758 kbps                    
Presentation Graphics           Italian         19.266 kbps                    
Presentation Graphics           German          22.594 kbps                    
Presentation Graphics           Spanish         21.054 kbps                    
Presentation Graphics           Dutch           16.630 kbps                    
Presentation Graphics           Korean          13.787 kbps                    
Presentation Graphics           Swedish         18.492 kbps                    
Presentation Graphics           Danish          17.902 kbps                    
Presentation Graphics           Finnish         18.499 kbps                    
Presentation Graphics           Norwegian       19.522 kbps                    
Presentation Graphics           Portuguese      21.494 kbps                    
Presentation Graphics           Chinese         15.542 kbps                    
Presentation Graphics           Japanese        36.723 kbps                    
Presentation Graphics           Japanese        13.867 kbps                    
Presentation Graphics           English         17.657 kbps                    
Presentation Graphics           French          15.608 kbps                    
Presentation Graphics           Italian         15.482 kbps                    
Presentation Graphics           German          18.079 kbps                    
Presentation Graphics           Spanish         15.434 kbps                    
Presentation Graphics           Dutch           14.381 kbps                    
Presentation Graphics           Swedish         13.427 kbps                    
Presentation Graphics           Danish          15.017 kbps                    
Presentation Graphics           Finnish         15.414 kbps                    
Presentation Graphics           Norwegian       14.985 kbps                    
Presentation Graphics           Japanese        1.656 kbps                      
Presentation Graphics           English         1.606 kbps                      
Presentation Graphics           French          1.802 kbps                      
Presentation Graphics           Italian         1.771 kbps                      
Presentation Graphics           German          2.044 kbps                      
Presentation Graphics           Spanish         1.783 kbps                      

FILES:

Name            Time In         Length          Size            Total Bitrate  
----            -------         ------          ----            -------------  
00111.M2TS      0:00:00.000     2:09:31.764     32,761,829,376  33,724 




The Mummy Trilogy 1999-2008 1080p Blu-ray VC-1 DTS-HD MA 5.1-LKS screenshots The Mummy Trilogy 1999-2008 1080p Blu-ray VC-1 DTS-HD MA 5.1-LKS screenshots The Mummy Trilogy 1999-2008 1080p Blu-ray VC-1 DTS-HD MA 5.1-LKS screenshots The Mummy Trilogy 1999-2008 1080p Blu-ray VC-1 DTS-HD MA 5.1-LKS screenshots





[hr]

The Mummy Trilogy 1999-2008 1080p Blu-ray VC-1 DTS-HD MA 5.1-LKS screenshots



Quote
DISC INFO:

Disc Title:     MUMMY_3TODE_G51
Disc Size:      49,199,069,985 bytes
Protection:     AACS
BD-Java:        Yes
BDInfo:         0.5.8

PLAYLIST REPORT:

Name:                   00000.MPLS
Length:                 1:51:40.360 (h:m:s.ms)
Size:                   30,528,092,160 bytes
Total Bitrate:          36.45 Mbps

VIDEO:

Codec                   Bitrate             Description    
-----                   -------             -----------    
MPEG-4 AVC Video        18491 kbps          1080p / 23.976 fps / 16:9 / High Profile 4.1
MPEG-4 AVC Video        757 kbps            480p / 23.976 fps / 16:9 / High Profile 3.2
MPEG-4 AVC Video        2010 kbps           480p / 23.976 fps / 16:9 / High Profile 3.2

AUDIO:

Codec                           Language        Bitrate         Description    
-----                           --------        -------         -----------    
DTS Audio                       Japanese        768 kbps        5.1 / 48 kHz / 768 kbps / 24-bit
DTS-HD Master Audio             English         4390 kbps       5.1 / 48 kHz / 4390 kbps / 24-bit (DTS Core: 5.1 / 48 kHz / 1509 kbps / 24-bit)
DTS Audio                       French          768 kbps        5.1 / 48 kHz / 768 kbps / 24-bit
DTS Audio                       Italian         768 kbps        5.1 / 48 kHz / 768 kbps / 24-bit
DTS Audio                       German          768 kbps        5.1 / 48 kHz / 768 kbps / 24-bit
DTS-HD Master Audio             Spanish         4067 kbps       5.1 / 48 kHz / 4067 kbps / 24-bit (DTS Core: 5.1 / 48 kHz / 768 kbps / 24-bit)
Dolby Digital Audio             English         192 kbps        2.0 / 48 kHz / 192 kbps / DN -4dB / Dolby Surround
DTS Express                     English         192 kbps        2.0 / 48 kHz / 192 kbps / 24-bit
DTS Express                     English         192 kbps        2.0 / 48 kHz / 192 kbps / 24-bit

SUBTITLES:

Codec                           Language        Bitrate         Description    
-----                           --------        -------         -----------    
Presentation Graphics           Japanese        16.300 kbps                    
Presentation Graphics           English         28.175 kbps                    
Presentation Graphics           French          20.290 kbps                    
Presentation Graphics           Italian         23.989 kbps                    
Presentation Graphics           German          28.341 kbps                    
Presentation Graphics           Spanish         20.323 kbps                    
Presentation Graphics           Dutch           17.655 kbps                    
Presentation Graphics           Danish          20.870 kbps                    
Presentation Graphics           Finnish         18.003 kbps                    
Presentation Graphics           Korean          12.505 kbps                    
Presentation Graphics           Norwegian       19.373 kbps                    
Presentation Graphics           Portuguese      23.505 kbps                    
Presentation Graphics           Swedish         22.015 kbps                    
Presentation Graphics           Chinese         16.458 kbps                    
Presentation Graphics           Japanese        38.562 kbps                    
Presentation Graphics           English         53.123 kbps                    
Presentation Graphics           French          51.511 kbps                    
Presentation Graphics           Italian         50.439 kbps                    
Presentation Graphics           German          58.882 kbps                    
Presentation Graphics           Spanish         51.332 kbps                    
Presentation Graphics           Japanese        11.789 kbps                    
Presentation Graphics           English         16.068 kbps                    
Presentation Graphics           French          14.808 kbps                    
Presentation Graphics           Italian         16.031 kbps                    
Presentation Graphics           German          16.169 kbps                    
Presentation Graphics           Spanish         14.822 kbps                    
Presentation Graphics           Japanese        38.559 kbps                    
Presentation Graphics           Japanese        2.167 kbps                      
Presentation Graphics           English         2.016 kbps                      
Presentation Graphics           French          2.708 kbps                      
Presentation Graphics           Italian         2.826 kbps                      
Presentation Graphics           German          3.117 kbps                      

FILES:

Name            Time In         Length          Size            Total Bitrate  
----            -------         ------          ----            -------------  
00009.M2TS      0:00:00.000     1:51:40.360     30,528,092,160  36,449



The Mummy Trilogy 1999-2008 1080p Blu-ray VC-1 DTS-HD MA 5.1-LKS screenshots The Mummy Trilogy 1999-2008 1080p Blu-ray VC-1 DTS-HD MA 5.1-LKS screenshots The Mummy Trilogy 1999-2008 1080p Blu-ray VC-1 DTS-HD MA 5.1-LKS screenshots The Mummy Trilogy 1999-2008 1080p Blu-ray VC-1 DTS-HD MA 5.1-LKS screenshots

TitleThe Mummy
Year1999
GenreAction / Adventure / Fantasy
Rating7 (351,882 votes)
PlotAn English librarian called Evelyn Carnahan becomes interested in starting an archaeological dig at the ancient city of Hamunaptra. She gains the help of Rick O'Connell, after saving him from his death. What Evelyn, her brother Jonathan and Rick are unaware of is that another group of explorers are interested in the same dig. Unfortunately for everyone, this group ends up unleashing a curse which been laid on the dead High Priest Imhotep. Now 'The Mummy' is awake and it's going to take a lot…
DirectorStephen Sommers
CastsBrendan Fraser / Rachel Weisz / John Hannah / Arnold Vosloo / Kevin J. O'Connor…
Runtime124 min
GenresAction / Adventure / Fantasy
The Mummy


Tags

Other releases

Same genre with The Mummy Trilogy 1999-2008 1080p Blu-ray VC-1 DTS-HD MA 5.1-LKS

The Bodyguard 2016 1080p BluRay DD5.1 x264-VietHDSkytten 2013 mHD BluRay DD5.1 x264-TRiMLogan 2017 Hybrid 1080p BluRay DTS x264-VietHDAdhurs 2010 720p BluRay DTS-ES x264-TmGThe Incredible Hulk 2008 ViE mHD Bluray DTS x264-TRiMDie Hard 1988 ViE mHD BluRay DD5.1 x264-EPiK

Comment for The Mummy Trilogy 1999-2008 1080p Blu-ray VC-1 DTS-HD MA 5.1-LKS

Only members can create comment.