NetHD.org

The New King of Comedy 2019 1080p WEB-DL AAC2.0 H.264-CHDWEB

Download The New King of Comedy 2019 1080p WEB-DL AAC2.0 H.264-CHDWEB 
Small DescriptionTân vua hài kịch
Basic Info
Uploaded byAnonymous at 2019-03-09 22:34:48
Action
Social
  • 36
Hot Meter
  • Views: 3054
  • Hits: 844
  • Snatched: 685 x time(s)
  • Last Action: 2019-05-22 11:39:50
Peers79 Seeder | 0 Leecher


Vì đam mê làm diễn viên, vì luôn tin tưởng rằng nếu không ngừng cố gắng thì mình sẽ thành công, Tiểu Mộng dù đã mất mười mấy năm làm diễn viên quần chúng, dù bạn bè người thân liên tục can ngăn, dù đạo diễn qùy lạy xin cô đừng đi đóng phim nữa, cô vẫn luôn kiên trì theo đuổi nghiệp diễn. Tuy nhiên, lòng kiên trì bền bỉ sắt đá đó không ngờ cũng có ngày lung lay khi Tiểu Mộng phát hiện bị bạn trai lừa gạt, cuỗm đi số tiền mà cô đã chắt chiu dành dụm suốt mười mấy năm làm quần chúng. Buồn bã và nản chí, Tiểu Mộng dần từ bỏ ước mơ của mình…




General
Unique ID                   : 174178649848895967660779312753973198965 (0x830996763D5516798BE4E7A038B10075)
Complete name               : F:\The.New.King.of.Comedy.2019.WEB-DL.1080p.H264.2Audio.AAC-CHDWEB.mkv
Format                      : Matroska
Format version              : Version 4
File size                   : 3.31 GiB
Duration                    : 1 h 30 min
Overall bit rate            : 5 245 kb/s
Encoded date                : UTC 2019-03-09 08:21:19
Writing application         : mkvmerge v18.0.0 ('Apricity') 64-bit
Writing library             : libebml v1.3.5 + libmatroska v1.4.8

Video
ID                          : 1
Format                      : AVC
Format/Info                 : Advanced Video Codec
Format profile              : High@L4
Format settings             : CABAC / 4 Ref Frames
Format settings, CABAC      : Yes
Format settings, ReFrames   : 4 frames
Codec ID                    : V_MPEG4/ISO/AVC
Duration                    : 1 h 30 min
Bit rate                    : 4 986 kb/s
Width                       : 1 920 pixels
Height                      : 800 pixels
Display aspect ratio        : 2.40:1
Frame rate mode             : Constant
Frame rate                  : 24.000 FPS
Color space                 : YUV
Chroma subsampling          : 4:2:0
Bit depth                   : 8 bits
Scan type                   : Progressive
Bits/(Pixel*Frame)          : 0.135
Stream size                 : 3.15 GiB (95%)
Writing library             : Provided by www.letv.com  :: H.264/MPEG-4 AVC codec -V 1.6.08
Default                     : Yes
Forced                      : No

Audio #1
ID                          : 2
Format                      : AAC LC
Format/Info                 : Advanced Audio Codec Low Complexity
Codec ID                    : A_AAC-2
Duration                    : 1 h 30 min
Bit rate                    : 128 kb/s
Channel(s)                  : 2 channels
Channel layout              : L R
Sampling rate               : 44.1 kHz
Frame rate                  : 43.066 FPS (1024 SPF)
Compression mode            : Lossy
Delay relative to video     : -46 ms
Stream size                 : 82.8 MiB (2%)
Title                       : 国语
Default                     : Yes
Forced                      : Yes

Audio #2
ID                          : 3
Format                      : AAC LC
Format/Info                 : Advanced Audio Codec Low Complexity
Codec ID                    : A_AAC-2
Duration                    : 1 h 30 min
Bit rate                    : 128 kb/s
Channel(s)                  : 2 channels
Channel layout              : L R
Sampling rate               : 44.1 kHz
Frame rate                  : 43.066 FPS (1024 SPF)
Compression mode            : Lossy
Delay relative to video     : -46 ms
Stream size                 : 82.8 MiB (2%)
Title                       : 粤语
Default                     : No
Forced                      : No
TitleTân Vua Hài Kich
Year2019
GenreComedy
Rating6.2 (827 votes)
Plotn/A
DirectorStephen Chow,Herman Yau
CastsJingwen E.,Baoqiang Wang,Quandan Zhang,Ruyang Jing,Qi Zhang…
Runtime91 min
GenresComedy
Tân Vua Hài Kich


Café Society 2016 1080p BluRay DTS x264-VietHDThe Romancing Star 1987 m720p BluRay DD5.1 2Audios x264-CMCTThe Bishop's Wife 1947 1080p BluRay FLAC1.0 x264-SbRFaithfully Yours 1988 ViE 1080p WEB-DL DD2.0 x264-9ShigWar of the Buttons 2011 FRENCH mHD BluRay DD5.1 x264-TRiM Free Fire 2016 1080p Blu-ray AVC DTS-HD MA 5.1-MTeam

Only members can create comment.