The Outer Wild 2018 720p WEBRip DD5.1 x264-HiWayGrope

Download The Outer Wild 2018 720p WEBRip DD5.1 x264-HiWayGrope 
Small Description
Basic Info
Uploaded byAnonymous at 2018-10-12 09:33:02
Action
Social
  • 2
Hot Meter
  • Views: 106
  • Hits: 21
  • Snatched: 15 x time(s)
  • Last Action: 2018-10-18 17:06:02
Peers6 Seeder | 0 Leecher
The Outer Wild 2018 720p WEBRip DD5.1 x264-HiWayGrope screenshots













The Outer Wild 2018 720p WEBRip DD5.1 x264-HiWayGrope screenshots


General
Unique ID                                : 193539722548120440860571278446047267058 (0x919A650B9BC949D99D9D2FDFDB6C08F2)
Complete name                            : F:\MOVIE\The.Outer.Wild.2018.720p.WERip.HiWayGrope.mkv
Format                                   : Matroska
Format version                           : Version 2
File size                                : 2.63 GiB
Duration                                 : 1 h 25 min
Overall bit rate                         : 4 422 kb/s
Encoded date                             : UTC 2018-10-10 16:39:02
Writing application                      : mkvmerge v3.3.0 ('Language') built on Mar 24 2010 14:59:24
Writing library                          : libebml v0.8.0 + libmatroska v0.9.0

Video
ID                                       : 1
Format                                   : AVC
Format/Info                              : Advanced Video Codec
Format profile                           : Main@L3.1
Format settings                          : CABAC / 3 Ref Frames
Format settings, CABAC                   : Yes
Format settings, RefFrames               : 3 frames
Codec ID                                 : V_MPEG4/ISO/AVC
Duration                                 : 1 h 25 min
Bit rate                                 : 3 950 kb/s
Width                                    : 1 280 pixels
Height                                   : 528 pixels
Display aspect ratio                     : 2.40:1
Frame rate mode                          : Constant
Frame rate                               : 25.000 FPS
Standard                                 : PAL
Color space                              : YUV
Chroma subsampling                       : 4:2:0
Bit depth                                : 8 bits
Scan type                                : Progressive
Bits/(Pixel*Frame)                       : 0.234
Stream size                              : 2.35 GiB (89%)
Language                                 : English
Default                                  : Yes
Forced                                   : No
Color range                              : Limited
Color primaries                          : BT.601 NTSC
Transfer characteristics                 : BT.601
Matrix coefficients                      : BT.601

Audio
ID                                       : 2
Format                                   : AC-3
Format/Info                              : Audio Coding 3
Codec ID                                 : A_AC3
Duration                                 : 1 h 25 min
Bit rate mode                            : Constant
Bit rate                                 : 384 kb/s
Channel(s)                               : 6 channels
Channel positions                        : Front: L C R, Side: L R, LFE
Sampling rate                            : 48.0 kHz
Frame rate                               : 31.250 FPS (1536 SPF)
Bit depth                                : 16 bits
Compression mode                         : Lossy
Stream size                              : 233 MiB (9%)
Service kind                             : Complete Main
Default                                  : Yes
Forced                                   : No













The Outer Wild 2018 720p WEBRip DD5.1 x264-HiWayGrope screenshots


The Outer Wild 2018 720p WEBRip DD5.1 x264-HiWayGrope screenshotsThe Outer Wild 2018 720p WEBRip DD5.1 x264-HiWayGrope screenshotsThe Outer Wild 2018 720p WEBRip DD5.1 x264-HiWayGrope screenshots
The Outer Wild 2018 720p WEBRip DD5.1 x264-HiWayGrope screenshotsThe Outer Wild 2018 720p WEBRip DD5.1 x264-HiWayGrope screenshotsThe Outer Wild 2018 720p WEBRip DD5.1 x264-HiWayGrope screenshots

TitleThe Outer Wild
Year2018
Genre
Rating3.6 (179 votes)
Plotn/A
DirectorPhilip Chidel
CastsLauren McKnight,Christian Oliver,Jeffrey Vincent Parise,Tory Taranova,Jimmy Jean-Louis…
Runtime85 min
Genres
The Outer Wild


Tags

Other releases

Same genre with The Outer Wild 2018 720p WEBRip DD5.1 x264-HiWayGrope

The Revenant 2015 2160p UHD Blu-ray FLAC 7.1 x264-NTbSeven Years in Tibet 1997 mHD BluRay DD5.1 x264-TRiMPee-wee's Big Holiday 2016 720p WEBRip DD5.1 x264-NTbRoad to your Heart 2014  1080p BluRay DTS x264-MELiTEHighway 2014 mHD BluRay DD5.1 x264-TRiMThe Last Wagon 1956 720p BluRay DTS x264-VietHD

Comment for The Outer Wild 2018 720p WEBRip DD5.1 x264-HiWayGrope

Only members can create comment.