NetHD.org

The Pledge 2001 1080p BluRay Remux AVC FLAC 2.0-PTer

Download The Pledge 2001 1080p BluRay Remux AVC FLAC 2.0-PTer 
Small DescriptionOn the night he retires as a Reno, Nevada detective, Jerry Black (Jack Nicholson) pledges to the mother of a murdered girl that he will find the killer. Jerry doesn't believe the Police arrested the right man. He discovers that this is the third incident in the area in the recent past with victims young, blonde, pretty, and small for their ages. So he buys an old gas station in the mountains near the crimes in order to search for a tall man who drives a black station wagon, gives toy porcupines…
Basic Info
Uploaded byAncREOsH (Power User) at 2020-10-17 02:38:22
Action
Hot Meter
  • Views: 84
  • Hits: 10
  • Snatched: 7 x time(s)
  • Last Action: 2020-10-27 08:04:18
Peers1 Seeder | 0 Leecher




CODE
General
Unique ID : 237093607300254521448804848018388511391 (0xB25E915AD4F7877855E3D51E8AD96A9F)
Complete name : The Pledge 2001 1080p Blu-ray Remux AVC FLAC 2.0-PTer.mkv
Format : Matroska
Format version : Version 4
File size : 20.3 GiB
Duration : 2 h 3 min
Overall bit rate mode : Variable
Overall bit rate : 23.5 Mb/s
Encoded date : UTC 2020-10-15 23:50:41
Writing application : mkvmerge v51.0.0 ('I Wish') 64-bit
Writing library : libebml v1.4.0 + libmatroska v1.6.2

Video
ID : 1
Format : AVC
Format/Info : Advanced Video Codec
Format profile : High@L4.1
Format settings : CABAC / 4 Ref Frames
Format settings, CABAC : Yes
Format settings, Reference frames : 4 frames
Codec ID : V_MPEG4/ISO/AVC
Duration : 2 h 3 min
Bit rate mode : Variable
Bit rate : 23.0 Mb/s
Maximum bit rate : 30.0 Mb/s
Width : 1 920 pixels
Height : 1 080 pixels
Display aspect ratio : 16:9
Frame rate mode : Constant
Frame rate : 23.976 (24000/1001) FPS
Standard : NTSC
Color space : YUV
Chroma subsampling : 4:2:0
Bit depth : 8 bits
Scan type : Progressive
Bits/(Pixel*Frame) : 0.462
Stream size : 19.8 GiB (98%)
Default : Yes
Forced : No
Color range : Limited
Color primaries : BT.709
Transfer characteristics : BT.709
Matrix coefficients : BT.709

Audio
ID : 2
Format : FLAC
Format/Info : Free Lossless Audio Codec
Codec ID : A_FLAC
Duration : 2 h 3 min
Bit rate mode : Variable
Bit rate : 554 kb/s
Channel(s) : 2 channels
Channel layout : L R
Sampling rate : 48.0 kHz
Frame rate : 11.719 FPS (4096 SPF)
Bit depth : 16 bits
Compression mode : Lossless
Stream size : 489 MiB (2%)
Title : English
Writing library : libFLAC 1.2.1 (UTC 2007-09-17)
Language : English
Default : Yes
Forced : No

Text
ID : 3
Format : PGS
Muxing mode : zlib
Codec ID : S_HDMV/PGS
Codec ID/Info : Picture based subtitle format used on BDs/HD-DVDs
Duration : 2 h 0 min
Bit rate : 16.1 kb/s
Count of elements : 2233
Stream size : 13.8 MiB (0%)
Title : English
Language : English
Default : Yes
Forced : No

Menu
00:00:00.000 : en:Chapter 01
00:07:41.002 : en:Chapter 02
00:18:05.918 : en:Chapter 03
00:32:36.538 : en:Chapter 04
00:45:04.535 : en:Chapter 05
00:54:50.204 : en:Chapter 06
01:06:10.717 : en:Chapter 07
01:15:34.363 : en:Chapter 08
01:31:10.882 : en:Chapter 09
01:45:54.932 : en:Chapter 10
02:00:16.459 : en:Chapter 11
02:03:24.564 : en:Chapter 12


The Pledge 2001 1080p BluRay Remux AVC FLAC 2.0-PTer screenshotsThe Pledge 2001 1080p BluRay Remux AVC FLAC 2.0-PTer screenshotsThe Pledge 2001 1080p BluRay Remux AVC FLAC 2.0-PTer screenshotsThe Pledge 2001 1080p BluRay Remux AVC FLAC 2.0-PTer screenshotsThe Pledge 2001 1080p BluRay Remux AVC FLAC 2.0-PTer screenshotsThe Pledge 2001 1080p BluRay Remux AVC FLAC 2.0-PTer screenshots
TitleThe Pledge
Year2001
GenreCrime
Rating6.8 (52,903 votes)
PlotOn the night he retires as a Reno, Nevada detective, Jerry Black (Jack Nicholson) pledges to the mother of a murdered girl that he will find the killer. Jerry doesn't believe the Police arrested the right man. He discovers that this is the third incident in the area in the recent past with victims young, blonde, pretty, and small for their ages. So he buys an old gas station in the mountains near the crimes in order to search for a tall man who drives a black station wagon, gives toy porcupines…
DirectorSean Penn
CastsPatricia Clarkson / Beau Daniels / Benicio Del Toro / Dale Dickey / Wendy Donaldson…
Runtime124 min
The Pledge

No keyword! (Click to edit!)

Our Kind of Traitor 2016 720p BluRay DTS x264-VietHDYoung and Dangerous Goodbye Mr Cool 2001 ViE 1080p WEB-DL DD2.0 x264-Chan10bitAmerican Psycho 2000 mHD Open Matte BluRay DD5.1 x264-EPiKLa fille inconnue 2016 720p BluRay DD5.1 x264-VietHDHacker 2016 1080p BluRay DTS x264-HRDogville 2003 720p BluRay DTS x264-HDZ