NetHD.org

The Preparation 2017 1080p FHDRip H264 AAC-NonDRM

Download The Preparation 2017 1080p FHDRip H264 AAC-NonDRM 
Small DescriptionNgày Không Còn Mẹ
Basic Info
Uploaded byAnonymous at 2019-04-15 20:43:38
Action
Social
  • 3
Hot Meter
  • Views: 59
  • Hits: 12
  • Snatched: 3 x time(s)
  • Last Action: 2019-04-20 20:57:55
Peers2 Seeder | 0 Leecher


In-gyu là một đứa trẻ lên 7 “mắc kẹt” trong hình hài một người đàn ông xấp xỉ 30. Mẹ của anh ấy – Ae-soon, dành trọn 30 năm cuộc đời để chăm sóc cho con trai mình, việc đó đã khiến cho Ae-soon trở thành một bà mẹ già luôn cằn nhằn và cực kì khó tính.Một ngày kia, bà Ae-soon nhận ra rằng thời gian bên cạnh đứa con trai khù khờ của mình đang dần kết thúc. Ý nghĩ phải rời bỏ In-gyu khiến cho bà chất chồng những lo lắng. 

Để chuẩn bị cho một tương lai hoàn toàn mới cho con trai mình, bà Ae-soon bắt đầu lên danh sách các việc cần làm – những điều vô cùng bình thường song lại hoàn toàn lạ lẫm và khó khăn đối với một người chậm phát triển như In-gyu. Hành trình trưởng thành muộn của In-gyu cùng sự hướng dẫn tận tâm của người mẹ già sẽ mang tới không ít tiếng cười và cả những giọt nước mắt dành cho khán giả trong những ngày cuối năm 2017.

 
General
Complete name                            : The.Preparation.2017.1080p.FHDRip.H264.AAC-NonDRM.mp4
Format                                   : MPEG-4
Format profile                           : Base Media / Version 2
Codec ID                                 : mp42
File size                                : 4.31 GiB
Duration                                 : 1h 54mn
Overall bit rate mode                    : Variable
Overall bit rate                         : 5 381 Kbps
Encoded date                             : UTC 1970-01-01 00:00:00
Tagged date                              : UTC 1970-01-01 00:00:00
Writing application                      : Lavf52.93.0
 
Video
ID                                       : 201
Format                                   : AVC
Format/Info                              : Advanced Video Codec
Format profile                           : High@L4
Format settings, CABAC                   : Yes
Format settings, ReFrames                : 3 frames
Format settings, GOP                     : M=4, N=120
Codec ID                                 : avc1
Codec ID/Info                            : Advanced Video Coding
Duration                                 : 1h 54mn
Bit rate                                 : 5 000 Kbps
Width                                    : 1 920 pixels
Height                                   : 1 080 pixels
Display aspect ratio                     : 16:9
Frame rate mode                          : Constant
Frame rate                               : 29.970 fps
Color space                              : YUV
Chroma subsampling                       : 4:2:0
Bit depth                                : 8 bits
Scan type                                : Progressive
Bits/(Pixel*Frame)                       : 0.080
Stream size                              : 3.95 GiB (91%)
Writing library                          : x264 core 120
Encoding settings                        : cabac=1 / ref=3 / deblock=1:0:0 / analyse=0x3:0x133 / me=hex / subme=6 / psy=1 / psy_rd=1.0:0.0 / mixed_ref=1 / me_range=16 / chroma_me=1 / trellis=1 / 8x8dct=1 / cqm=0 / deadzone=21,11 / fast_pskip=0 / chroma_qp_offset=-2 / threads=8 / sliced_threads=0 / nr=0 / decimate=1 / mbaff=0 / constrained_intra=0 / bframes=3 / b_pyramid=0 / b_adapt=0 / b_bias=0 / direct=3 / wpredb=0 / wpredp=0 / keyint=120 / keyint_min=61 / scenecut=0 / intra_refresh=0 / rc_lookahead=40 / rc=abr / mbtree=1 / bitrate=5000 / ratetol=1.0 / qcomp=0.60 / qpmin=0 / qpmax=51 / qpstep=4 / ip_ratio=1.41 / aq=1:1.00
Encoded date                             : UTC 1970-01-01 00:00:00
Tagged date                              : UTC 2017-11-13 08:25:13
 
Audio
ID                                       : 101
Format                                   : AAC
Format/Info                              : Advanced Audio Codec
Format profile                           : LC
Codec ID                                 : 40
Duration                                 : 1h 54mn
Bit rate mode                            : Variable
Bit rate                                 : 256 Kbps
Channel(s)                               : 2 channels
Channel positions                        : Front: L R
Sampling rate                            : 48.0 KHz
Compression mode                         : Lossy
Stream size                              : 210 MiB (5%)
Encoded date                             : UTC 1970-01-01 00:00:00
Tagged date                              : UTC 2017-11-13 08:25:1
 


The Remains of the Day 1993 720p BluRay DD5.1 x264-DONMargin Call 2011 mHD-720p Bluray AC3 x264-TRiMPrince Charming 1999 ViE 720p BluRay DD5.1 x264-CMCTEverything, Everything 2017 1080p BluRay DTS x264-GECKOSThe Twilight Samurai 2002 1080p Blu-ray REMUX AVC TrueHD 5.1 2Audio-HDAreaThe Last King Of Scotland 2006 mHD-720p Bluray AC3 x264-TRiM

Only members can create comment.