NetHD.org

The Preparation 2017 1080p WEB DD2 0 x264

Download The Preparation 2017 1080p WEB DD2 0 x264 
Small DescriptionNgày Không Còn Mẹ | Vietnamese Sub mux sẵn
Basic Info
Uploaded bytrienchieux200 (Power User) at 2018-12-06 14:22:36
Action
Social
  • 2
Hot Meter
  • Views: 220
  • Hits: 45
  • Snatched: 31 x time(s)
  • Last Action: 2019-02-21 14:29:42
Peers4 Seeder | 0 Leecher


In-gyu là một đứa trẻ lên 7 “mắc kẹt” trong hình hài một người đàn ông xấp xỉ 30. Mẹ của anh ấy – Ae-soon, dành trọn 30 năm cuộc đời để chăm sóc cho con trai mình, việc đó đã khiến cho Ae-soon trở thành một bà mẹ già luôn cằn nhằn và cực kì khó tính.Một ngày kia, bà Ae-soon nhận ra rằng thời gian bên cạnh đứa con trai khù khờ của mình đang dần kết thúc. Ý nghĩ phải rời bỏ In-gyu khiến cho bà chất chồng những lo lắng. 


Để chuẩn bị cho một tương lai hoàn toàn mới cho con trai mình, bà Ae-soon bắt đầu lên danh sách các việc cần làm – những điều vô cùng bình thường song lại hoàn toàn lạ lẫm và khó khăn đối với một người chậm phát triển như In-gyu. Hành trình trưởng thành muộn của In-gyu cùng sự hướng dẫn tận tâm của người mẹ già sẽ mang tới không ít tiếng cười và cả những giọt nước mắt dành cho khán giả trong những ngày cuối năm 2017.


General
Complete name                            : E:\Movies\Da xem\Ngay khong con me\The Preparation 2017 1080p WEB DD2.0 x264 Sub.mp4
Format                                   : MPEG-4
Format profile                           : Base Media
Codec ID                                 : isom (isom)
File size                                : 2.10 GiB
Duration                                 : 1h 54mn
Overall bit rate mode                    : Variable
Overall bit rate                         : 2 624 Kbps
Encoded date                             : UTC 2018-01-09 03:03:57
Tagged date                              : UTC 2018-01-09 03:03:57
Writing application                      : MkvToMp4 [www.mkvtomp4.ru] version 0.222

Video
ID                                       : 1
Format                                   : AVC
Format/Info                              : Advanced Video Codec
Format profile                           : High@L4.1
Format settings, CABAC                   : Yes
Format settings, ReFrames                : 4 frames
Codec ID                                 : avc1
Codec ID/Info                            : Advanced Video Coding
Duration                                 : 1h 54mn
Bit rate                                 : 2 500 Kbps
Maximum bit rate                         : 4 603 Kbps
Width                                    : 1 920 pixels
Height                                   : 1 080 pixels
Display aspect ratio                     : 16:9
Frame rate mode                          : Variable
Frame rate                               : 29.970 fps
Minimum frame rate                       : 18.182 fps
Maximum frame rate                       : 30.303 fps
Color space                              : YUV
Chroma subsampling                       : 4:2:0
Bit depth                                : 8 bits
Scan type                                : Progressive
Bits/(Pixel*Frame)                       : 0.040
Stream size                              : 2.00 GiB (95%)
Writing library                          : x264 core 148 r2694 3b70645
Encoding settings                        : cabac=1 / ref=1 / deblock=1:-1:-1 / analyse=0x3:0x113 / me=hex / subme=2 / psy=1 / psy_rd=1.00:0.15 / mixed_ref=0 / me_range=16 / chroma_me=1 / trellis=0 / 8x8dct=1 / cqm=0 / deadzone=21,11 / fast_pskip=1 / chroma_qp_offset=0 / threads=12 / lookahead_threads=4 / sliced_threads=0 / nr=0 / decimate=1 / interlaced=0 / bluray_compat=0 / constrained_intra=0 / bframes=3 / b_pyramid=2 / b_adapt=1 / b_bias=0 / direct=1 / weightb=1 / open_gop=0 / weightp=1 / keyint=250 / keyint_min=25 / scenecut=40 / intra_refresh=0 / rc_lookahead=10 / rc=abr / mbtree=1 / bitrate=2500 / ratetol=1.0 / qcomp=0.60 / qpmin=0 / qpmax=69 / qpstep=4 / vbv_maxrate=3000 / vbv_bufsize=3500 / nal_hrd=none / filler=0 / ip_ratio=1.40 / aq=1:1.00
Language                                 : English
Encoded date                             : UTC 2018-01-09 03:03:57
Tagged date                              : UTC 2018-01-09 03:04:51

Audio
ID                                       : 2
Format                                   : AAC
Format/Info                              : Advanced Audio Codec
Format profile                           : LC
Codec ID                                 : 40
Duration                                 : 1h 54mn
Bit rate mode                            : Variable
Bit rate                                 : 126 Kbps
Maximum bit rate                         : 164 Kbps
Channel(s)                               : 2 channels
Channel positions                        : Front: L R
Sampling rate                            : 48.0 KHz
Frame rate                               : 46.875 fps (1024 spf)
Compression mode                         : Lossy
Stream size                              : 104 MiB (5%)
Language                                 : English
Default                                  : Yes
Alternate group                          : 1
Encoded date                             : UTC 2018-01-09 03:04:49
Tagged date                              : UTC 2018-01-09 03:04:51


The Preparation 2017 1080p WEB DD2 0 x264 screenshots The Preparation 2017 1080p WEB DD2 0 x264 screenshots The Preparation 2017 1080p WEB DD2 0 x264 screenshots The Preparation 2017 1080p WEB DD2 0 x264 screenshots The Preparation 2017 1080p WEB DD2 0 x264 screenshots The Preparation 2017 1080p WEB DD2 0 x264 screenshots


Pele Birth of a Legend 2016 1080p Blu-ray REMUX AVC DTS-HD MA 5.1-HDAreaSydney New Year's Fireworks 2015 1080i HDTV H.264 MPA2 0-aBNew Years Eve Fireworks London 2017 1080p HDTV DD2.0 x264-PLUTONiUMPhiên Toà Lưu Động Xét Xử Vụ Thảm Án Ở Bình Phước 1080i HDTV AAC 2 0 H.264-NTVYurigokoro 2017 720p BluRay DTS x264-HDChinaInfernal Affairs III 2003 720p BluRay DTS x264-WiKi

Only members can create comment.