NetHD.org

The Secret Garden 2020 1080p Blu-ray REMUX AVC DTS-HD MA 5.1-3CT

Download The Secret Garden 2020 1080p Blu-ray REMUX AVC DTS-HD MA 5.1-3CT 
Small DescriptionKhu vườn huyền bí | Phụ Đề Việt
Basic Info
Uploaded byAnonymous at 2020-10-18 06:41:17
Action
Hot Meter
  • Views: 187
  • Hits: 22
  • Snatched: 18 x time(s)
  • Last Action: 2020-10-26 22:01:26
Peers7 Seeder | 0 Leecher



The Secret Garden 2020 1080p Blu-ray REMUX AVC DTS-HD MA 5.1-3CT screenshots


Tên: Khu Vườn Huyền Bí (The Secret Garden)
Ngày phát hành: (Taiwan) 08 tháng 07 năm 2020
Thể loại: Tình cảm, Gia đình, Giả tưởng
Xếp hạng IMDb: 5.5/10.0 từ 2988 người
Liên kết IMDb: https://www.imdb.com/title/tt2702920
Đạo diễn: Marc Munden
Kịch bản: Jack Thorne,,Frances Hodgson Burnett
Diễn viên: Dixie Egerickx,Richard Hansell,David Verrey,Tommy Gene Surridge,Julie Walters...


Nội dung xoay quanh cô bé tiểu thư Mary Lennox (Dixie Egerickx), sau khi bố mẹ qua đời, cô được chuyển đến nhà của người bác tại vùng nông thôn nước Anh. Tại đây, Mary tình cờ gặp gỡ chú chim ức đỏ và vô tình khám phá ra khu vườn bí mật đã bị đóng cửa nhiều năm sau cái chết của phu nhân Craven.

Cùng với cậu bạn Dickon, một cậu bé am hiểu về thiên nhiên và có thể nói chuyện được với các loài vật, Mary đã hồi sinh khu vườn. Đối với Mary và Dickon, khu vườn là một món quà ý nghĩa mà cả hai đều trân quý.

Bằng tất cả tình yêu và niềm hy vọng, Mary và Dickon hằng ngày dành thời gian chăm sóc để khu vườn luôn thơm ngát, xanh mát và đầy sức sống. Và Mary, như một tiểu thiên thần, cô không chỉ thổi một làn gió mới vào khu vườn mà còn hồi sinh những tâm hồn khô cằn: cậu chủ Colin, bác Archibald và cả trang viên Misselthwaite.



Quote: SOURCE


Blu-ray: The.Secret.Garden.2020.BluRay.1080p.AVC.DTS-HD.MA.5.1-AvoHD
Sub: @RichardLin89



Quote: Media Info



General
Unique ID                                : 97980349265240312921734252151749862682 (0x49B654303E7513BD4762A971FA61E51A)
Complete name                            : The Secret Garden 2020 1080p Blu-ray REMUX AVC DTS-HD MA 5.1-3CT.mkv
Format                                   : Matroska
Format version                           : Version 4
File size                                : 27.1 GiB
Duration                                 : 1 h 40 min
Overall bit rate mode                    : Variable
Overall bit rate                         : 38.7 Mb/s
Movie name                               : The Secret Garden (2020)
Encoded date                             : UTC 2020-10-17 04:36:05
Writing application                      : mkvmerge v51.0.0 ('I Wish') 64-bit
Writing library                          : libebml v1.4.0 + libmatroska v1.6.2
Cover                                    : Yes
Attachments                              : cover.jpg

Video
ID                                       : 1
ID in the original source medium         : 4113 (0x1011)
Format                                   : AVC
Format/Info                              : Advanced Video Codec
Format profile                           : High@L4.1
Format settings                          : CABAC / 4 Ref Frames
Format settings, CABAC                   : Yes
Format settings, Reference frames        : 4 frames
Format settings, GOP                     : M=3, N=12
Codec ID                                 : V_MPEG4/ISO/AVC
Duration                                 : 1 h 40 min
Bit rate mode                            : Variable
Bit rate                                 : 35.4 Mb/s
Maximum bit rate                         : 39.5 Mb/s
Width                                    : 1 920 pixels
Height                                   : 1 080 pixels
Display aspect ratio                     : 16:9
Frame rate mode                          : Constant
Frame rate                               : 23.976 (24000/1001) FPS
Color space                              : YUV
Chroma subsampling                       : 4:2:0
Bit depth                                : 8 bits
Scan type                                : Progressive
Bits/(Pixel*Frame)                       : 0.713
Stream size                              : 24.8 GiB (91%)
Title                                    : 1080p | MPEG-4p10 | AVC | H.264
Language                                 : English
Default                                  : Yes
Forced                                   : No
Original source medium                   : Blu-ray

Audio
ID                                       : 2
ID in the original source medium         : 4352 (0x1100)
Format                                   : DTS XLL
Format/Info                              : Digital Theater Systems
Commercial name                          : DTS-HD Master Audio
Codec ID                                 : A_DTS
Duration                                 : 1 h 40 min
Bit rate mode                            : Variable
Bit rate                                 : 3 289 kb/s
Channel(s)                               : 6 channels
Channel layout                           : C L R Ls Rs LFE
Sampling rate                            : 48.0 kHz
Frame rate                               : 93.750 FPS (512 SPF)
Bit depth                                : 24 bits
Compression mode                         : Lossless
Stream size                              : 2.30 GiB (8%)
Title                                    : English | DTS-HD Master Audio 5.1
Language                                 : English
Default                                  : Yes
Forced                                   : No
Original source medium                   : Blu-ray

Text #1
ID                                       : 3
Format                                   : UTF-8
Codec ID                                 : S_TEXT/UTF8
Codec ID/Info                            : UTF-8 Plain Text
Duration                                 : 1 h 32 min
Bit rate                                 : 37 b/s
Count of elements                        : 833
Stream size                              : 25.5 KiB (0%)
Title                                    : English | SRT
Language                                 : English
Default                                  : No
Forced                                   : No

Text #2
ID                                       : 4
ID in the original source medium         : 4608 (0x1200)
Format                                   : PGS
Muxing mode                              : zlib
Codec ID                                 : S_HDMV/PGS
Codec ID/Info                            : Picture based subtitle format used on BDs/HD-DVDs
Duration                                 : 1 h 34 min
Bit rate                                 : 29.9 kb/s
Count of elements                        : 2016
Stream size                              : 20.1 MiB (0%)
Title                                    : English (SDH) | PGS
Language                                 : English
Default                                  : No
Forced                                   : No
Original source medium                   : Blu-ray

Text #3
ID                                       : 5
Format                                   : UTF-8
Codec ID                                 : S_TEXT/UTF8
Codec ID/Info                            : UTF-8 Plain Text
Duration                                 : 1 h 33 min
Bit rate                                 : 55 b/s
Count of elements                        : 843
Stream size                              : 37.6 KiB (0%)
Title                                    : Vietnamese | SRT | @RichardLin89
Language                                 : Vietnamese
Default                                  : Yes
Forced                                   : No

Menu
00:00:00.000                             : en:Chapter 01
00:05:07.140                             : en:Chapter 02
00:10:05.479                             : en:Chapter 03
00:15:28.802                             : en:Chapter 04
00:20:27.809                             : en:Chapter 05
00:24:08.864                             : en:Chapter 06
00:27:39.032                             : en:Chapter 07
00:32:40.458                             : en:Chapter 08
00:37:58.567                             : en:Chapter 09
00:44:15.903                             : en:Chapter 10
00:48:41.960                             : en:Chapter 11
00:53:54.231                             : en:Chapter 12
00:59:09.295                             : en:Chapter 13
01:04:29.323                             : en:Chapter 14
01:08:25.601                             : en:Chapter 15
01:13:15.265                             : en:Chapter 16
01:18:22.906                             : en:Chapter 17
01:23:59.451                             : en:Chapter 18
01:30:11.072                             : en:Chapter 19
01:34:57.525                             : en:Chapter 20



The Secret Garden 2020 1080p Blu-ray REMUX AVC DTS-HD MA 5.1-3CT screenshotsThe Secret Garden 2020 1080p Blu-ray REMUX AVC DTS-HD MA 5.1-3CT screenshots
The Secret Garden 2020 1080p Blu-ray REMUX AVC DTS-HD MA 5.1-3CT screenshotsThe Secret Garden 2020 1080p Blu-ray REMUX AVC DTS-HD MA 5.1-3CT screenshots
The Secret Garden 2020 1080p Blu-ray REMUX AVC DTS-HD MA 5.1-3CT screenshotsThe Secret Garden 2020 1080p Blu-ray REMUX AVC DTS-HD MA 5.1-3CT screenshots

TitleKhu Vườn Huyền Bí
Year2020
GenreDrama
Rating5.5 (3,456 votes)
PlotThe main character Mary Lennox "Dixie Egerickx" is a spoiled 10-year-old girl of rich parents who grew up in India. After everyone in her family dies from cholera, Mary is sent to live in Misselthwaite manor in Yorkshire with her uncle Archibald Craven "Colin Firth" and the housekeeper Mrs. Medlock "Julie Walters". Mary discovers that the house holds many secrets. There she finds a key that leads her to a garden held locked for years by her uncle after the death of his wife. Soon she finds a…
DirectorMarc Munden
CastsDixie Egerickx / Richard Hansell / David Verrey / Tommy Gene Surridge / Julie Walters…
Runtime99 min
Khu Vườn Huyền Bí

No keyword! (Click to edit!)

A Korean in Paris 2015 1080p NF WEB-DL DD+2 0 x264-ARiNThe Ottoman Lieutenant 2017 mHD BluRay DD5.1 x264-TRiMFanaa 2006 720p BluRay DTS x264-greenHDTouch Me Not 2018 1080p BluRay DD5.1 x264-EABreaker Morant 1980 1080p BluRay FLAC 1 0 x264-DONDoubt 2008 1080p BluRay DTS x264-DON