NetHD.org

The Story Of O 1975 1080p BluRay DD5.1 x264-Japhson

Download The Story Of O 1975 1080p BluRay DD5.1 x264-Japhson 
Small DescriptionCân Nhắc Trước Khi Xem
Basic Info
Uploaded byAnonymous at 2019-02-11 20:58:02
Action
Social
  • 2
Hot Meter
  • Views: 311
  • Hits: 55
  • Snatched: 38 x time(s)
  • Last Action: 2019-02-18 21:55:00
Peers10 Seeder | 0 Leecher


The Story Of O 1975 1080p BluRay DD5.1 x264-Japhson screenshots




Quote
Director: Just Jaeckin
Writers: Dominique Aury (novel) (as Pauline Réage), Sébastien Japrisot
Stars: Corinne Cléry, Udo Kier, Anthony Steel | See full cast & crew »

General
Unique ID                      : 189452697960836210054668603181705717323 (0x8E87432CF58C3BBA9BE97CEB179BE64B)
Complete name                  : G:\@m1080CHD\The.Story.Of.O.1975.1080p.BluRay.x264-Japhson\japhson-tsoo1080p.mkv
Format                         : Matroska
Format version                 : Version 2
File size                      : 6.56 GiB
Duration                       : 1h 44mn
Overall bit rate               : 8 966 Kbps
Encoded date                   : UTC 2010-02-09 05:36:33
Writing application            : mkvmerge v3.1.0 ('Happy up here') built on Jan 19 2010 12:09:24
Writing library                : libebml v0.7.9 + libmatroska v0.8.1

Video
ID                             : 1
Format                         : AVC
Format/Info                    : Advanced Video Codec
Format profile                 : High@L4.1
Format settings, CABAC         : Yes
Format settings, ReFrames      : 4 frames
Codec ID                       : V_MPEG4/ISO/AVC
Duration                       : 1h 44mn
Bit rate                       : 8 741 Kbps
Width                          : 1 920 pixels
Height                         : 1 080 pixels
Display aspect ratio           : 16:9
Frame rate mode                : Constant
Frame rate                     : 23.976 (24000/1001) fps
Color space                    : YUV
Chroma subsampling             : 4:2:0
Bit depth                      : 8 bits
Scan type                      : Progressive
Bits/(Pixel*Frame)             : 0.176
Stream size                    : 6.27 GiB (96%)
Writing library                : x264 core 84 r1416 fcf70c2
Encoding settings              : cabac=1 / ref=4 / deblock=1:-1:-1 / analyse=0x3:0x113 / me=umh / subme=7 / psy=1 / psy_rd=1.0:0.0 / mixed_ref=1 / me_range=16 / chroma_me=1 / trellis=2 / 8x8dct=1 / cqm=0 / deadzone=21,11 / fast_pskip=1 / chroma_qp_offset=-2 / threads=6 / sliced_threads=0 / nr=0 / decimate=1 / mbaff=0 / constrained_intra=0 / bframes=3 / b_pyramid=0 / b_adapt=2 / b_bias=0 / direct=3 / wpredb=1 / wpredp=2 / keyint=250 / keyint_min=25 / scenecut=40 / intra_refresh=0 / rc_lookahead=40 / rc=2pass / mbtree=1 / bitrate=8741 / ratetol=1.0 / qcomp=0.60 / qpmin=10 / qpmax=51 / qpstep=4 / cplxblur=20.0 / qblur=0.5 / vbv_maxrate=50000 / vbv_bufsize=50000 / ip_ratio=1.40 / aq=1:1.00
Language                       : English
Default                        : Yes
Forced                         : Yes

Audio
ID                             : 2
Format                         : AC-3
Format/Info                    : Audio Coding 3
Mode extension                 : CM (complete main)
Format settings, Endianness    : Big
Codec ID                       : A_AC3
Duration                       : 1h 44mn
Bit rate mode                  : Constant
Bit rate                       : 224 Kbps
Channel(s)                     : 2 channels
Channel positions              : Front: L R
Sampling rate                  : 48.0 KHz
Frame rate                     : 31.250 fps (1536 spf)
Compression mode               : Lossy
Stream size                    : 168 MiB (2%)
Language                       : English
Default                        : Yes
Forced                         : Yes



The Story Of O 1975 1080p BluRay DD5.1 x264-Japhson screenshots The Story Of O 1975 1080p BluRay DD5.1 x264-Japhson screenshots The Story Of O 1975 1080p BluRay DD5.1 x264-Japhson screenshots 

The Story Of O 1975 1080p BluRay DD5.1 x264-Japhson screenshots The Story Of O 1975 1080p BluRay DD5.1 x264-Japhson screenshots The Story Of O 1975 1080p BluRay DD5.1 x264-Japhson screenshots

TitleHistoire d'O
Year1975
GenreDrama
Rating5.4 (5,195 votes)
PlotThe beautiful O is taken by her boyfriend, Rene, to a bizarre retreat, where she is trained in bondage and sexual perversion. Rene discharges a personal debt by transferring possession of O to his step-brother, Sir Stephen... Written by
DirectorJust Jaeckin
CastsCorinne Cléry,Udo Kier,Anthony Steel,Jean Gaven,Christiane Minazzoli…
Runtime97 min
GenresDrama
Histoire d


Flowers and Birds Basket 2013 1080p Blu-ray AVC TrueHD 2.0-CHDEmbers 2015 1080p WEB-DL DD5.1 H.264-RARBGAll About Love 2002 HDTV m720p DD2.0 x264-CMCTLolita 1997 REPACK 1080p BluRay DTS x264-VietHDA Man and A Woman 2016 KOREAN 1080p BluRay AVC DTS-HD MA 5.1-FGTTime of the Wolf 2003 720p BluRay DTS x264-SbR

Only members can create comment.