NetHD.org

The Terror S01 1080p BluRay DD5.1 x264-ROVERS

Download The Terror S01 1080p BluRay DD5.1 x264-ROVERS Free
Small DescriptionIn 1847, the crew of a real life Royal Naval expedition (later known as Franklin's expedition) led by three captains, Sir John Franklin, Francis Crozier and James Fitzjames, is sent to find the Arctic's fabled treacherous Northwest Passage but instead discovers a monstrous polar bear-like predator, a cunning and vicious Gothic horror that stalks the ships in a desperate game of survival. However, it soon becomes clear that that's just the beginning of their troubles. As things worsen and…
Basic Info
Uploaded byAnonymous at 2018-10-12 08:54:06
Action
Social
  • 1
Hot Meter
  • Views: 144
  • Hits: 7
  • Snatched: 1 x time(s)
  • Last Action: 2018-11-05 06:49:53
Peers0 Seeder | 0 Leecher


The Terror S01 1080p BluRay DD5.1 x264-ROVERS screenshots













The Terror S01 1080p BluRay DD5.1 x264-ROVERS screenshots


General
Unique ID                                : 282132140263492800190775029043591792391 (0xD440AC78F694B27F5B5FF4A3C61E4707)
Complete name                            : F:\MOVIE\The.Terror.S01.1080p.BluRay.x264-ROVERS\the.terror.s01e01.1080p.bluray.x264-rovers.mkv
Format                                   : Matroska
Format version                           : Version 4 / Version 2
File size                                : 3.28 GiB
Duration                                 : 46 min 3 s
Overall bit rate                         : 10.2 Mb/s
Encoded date                             : UTC 2018-08-13 00:11:29
Writing application                      : mkvmerge v22.0.0 ('At The End Of The World') 64-bit
Writing library                          : libebml v1.3.5 + libmatroska v1.4.8

Video
ID                                       : 1
Format                                   : AVC
Format/Info                              : Advanced Video Codec
Format profile                           : High@L4.1
Format settings                          : CABAC / 4 Ref Frames
Format settings, CABAC                   : Yes
Format settings, RefFrames               : 4 frames
Codec ID                                 : V_MPEG4/ISO/AVC
Duration                                 : 46 min 3 s
Bit rate                                 : 9 542 kb/s
Width                                    : 1 920 pixels
Height                                   : 1 080 pixels
Display aspect ratio                     : 16:9
Frame rate mode                          : Constant
Frame rate                               : 23.976 (24000/1001) FPS
Color space                              : YUV
Chroma subsampling                       : 4:2:0
Bit depth                                : 8 bits
Scan type                                : Progressive
Bits/(Pixel*Frame)                       : 0.192
Stream size                              : 3.07 GiB (94%)
Writing library                          : x264 core 155 r2901 7d0ff22
Encoding settings                        : cabac=1 / ref=4 / deblock=1:-3:-3 / analyse=0x3:0x133 / me=umh / subme=8 / psy=1 / psy_rd=1.00:0.00 / mixed_ref=1 / me_range=16 / chroma_me=1 / trellis=1 / 8x8dct=1 / cqm=0 / deadzone=21,11 / fast_pskip=0 / chroma_qp_offset=-2 / threads=30 / lookahead_threads=5 / sliced_threads=0 / nr=0 / decimate=1 / interlaced=0 / bluray_compat=0 / constrained_intra=0 / bframes=3 / b_pyramid=2 / b_adapt=1 / b_bias=0 / direct=3 / weightb=1 / open_gop=0 / weightp=2 / keyint=250 / keyint_min=23 / scenecut=40 / intra_refresh=0 / rc_lookahead=50 / rc=2pass / mbtree=1 / bitrate=9542 / ratetol=1.0 / qcomp=0.60 / qpmin=0 / qpmax=69 / qpstep=4 / cplxblur=20.0 / qblur=0.5 / vbv_maxrate=62500 / vbv_bufsize=78125 / nal_hrd=none / filler=0 / ip_ratio=1.40 / aq=1:1.00
Default                                  : Yes
Forced                                   : No

Audio
ID                                       : 2
Format                                   : AC-3
Format/Info                              : Audio Coding 3
Codec ID                                 : A_AC3
Duration                                 : 46 min 3 s
Bit rate mode                            : Constant
Bit rate                                 : 640 kb/s
Channel(s)                               : 6 channels
Channel positions                        : Front: L C R, Side: L R, LFE
Sampling rate                            : 48.0 kHz
Frame rate                               : 31.250 FPS (1536 SPF)
Bit depth                                : 16 bits
Compression mode                         : Lossy
Stream size                              : 211 MiB (6%)
Language                                 : English
Service kind                             : Complete Main
Default                                  : Yes
Forced                                   : No

Menu
00:00:00.000                             : en:00:00:00.000
00:09:48.755                             : en:00:09:48.755
00:10:19.327                             : en:00:10:19.327
00:18:34.280                             : en:00:18:34.280
00:25:30.070                             : en:00:25:30.070
00:32:06.133                             : en:00:32:06.133
00:41:02.460                             : en:00:41:02.460
00:45:31.896                             : en:00:45:31.896













The Terror S01 1080p BluRay DD5.1 x264-ROVERS screenshots


The Terror S01 1080p BluRay DD5.1 x264-ROVERS screenshotsThe Terror S01 1080p BluRay DD5.1 x264-ROVERS screenshotsThe Terror S01 1080p BluRay DD5.1 x264-ROVERS screenshots
The Terror S01 1080p BluRay DD5.1 x264-ROVERS screenshotsThe Terror S01 1080p BluRay DD5.1 x264-ROVERS screenshotsThe Terror S01 1080p BluRay DD5.1 x264-ROVERS screenshots
The Terror S01 1080p BluRay DD5.1 x264-ROVERS screenshotsThe Terror S01 1080p BluRay DD5.1 x264-ROVERS screenshotsThe Terror S01 1080p BluRay DD5.1 x264-ROVERS screenshots

TitleThe Terror
Year2018
Genre
Rating8.1 (24,621 votes)
PlotIn 1847, the crew of a real life Royal Naval expedition (later known as Franklin's expedition) led by three captains, Sir John Franklin, Francis Crozier and James Fitzjames, is sent to find the Arctic's fabled treacherous Northwest Passage but instead discovers a monstrous polar bear-like predator, a cunning and vicious Gothic horror that stalks the ships in a desperate game of survival. However, it soon becomes clear that that's just the beginning of their troubles. As things worsen and…
Directorn/A
CastsJared Harris,Tobias Menzies,Paul Ready,Adam Nagaitis,Ian Hart…
Runtime60 min
Genres
The Terror


Daredevil 2003 DC 720p BluRay DTS x264-ESiR Pixels 2015 1080p Blu-ray Remux AVC TrueHD 7.1 Atmos-NetBDKapoor & Sons 2016 mHD BluRay AAC5.1 x264-DDRThe Treasure of the Sierra Madre 1948 1080p BluRay DTS x264-WiKiThe Guillotines 2012 720p BluRay DD5.1 x264-TayTOChina Salesman 2017 720p BluRay DD5.1 x264-SADPANDA

Only members can create comment.