The Three Swordsmen 1994 ViE 720p WEB-DL DD2.0 x264-TYZH

Download The Three Swordsmen 1994 ViE 720p WEB-DL DD2.0 x264-TYZH Free
Small DescriptionĐao Kiếm Tiếu l Lưu Đức Hoa l WEB-DL hiếm l Lồng Tiếng-Fix au Syned by anvietcanh2@NetHD.org
Basic Info
Uploaded byanvietcanh2 (Uploader) at 2017-06-13 11:37:14
Action
Social
  • 2
Hot Meter
  • Views: 341
  • Hits: 66
  • Snatched: 51 x time(s)
  • Last Action: 2018-09-18 10:59:55
Peers1 Seeder | 0 Leecher
The Three Swordsmen 1994 ViE 720p WEB-DL DD2.0 x264-TYZH screenshots

Plot:
Trên giang hồ có 3 hiệp khách nổi danh nhất : Hoành Đao,Danh Kiếm,Tiếu Tam Thiếu.Yên Đôn Vương đứng đầu dị tộc âm mưu đánh bại họ,sai con gái thứ Điệp Vũ hoá trang để tiếp cận,con gái lớn phải gả cho 1 kiếm sĩ có tiếng nhưng tàn tật.Tiếu Tam Thiếu bị vu cáo đột nhập hoàng cung ám sát quý phi.Hoành Đao và 4 đại hộ vệ truy nã Tam Thiếu . Tam Thiếu quay lại Tàng Kiếm Sơn trang,phát hiện ra chân tướng sự thật . Hoành Đao đồng tình với Tam Thiếu nên để Tam Thiếu và Điệp Vũ chạy trốn. Tại hôn lễ của Điệp Vũ và Tam Thiếu, Hồng Diệp phu nhân tiết lộ âm mưu của Yên Đôn vương. Quá căm giận ,Tam Thiếu giết chết Yên Đôn vương. Hồng Diệp bị cha đánh trọng thương qua đời...Giải quyết xong mọi ân oán giang hồ, Tam Thiếu quy ẩn

General
Unique ID                                : 196729568254308050587087819300464938778 (0x9400BC94BFD3335C927E8F92722ECF1A)
Complete name                            : E:\UP LOAD PHIM\SYNED-CHỜ UP\The Three Swordsmen 1994 ViE 720p WEB-DL DD2.0 x264-TYZH.mkv
Format                                   : Matroska
Format version                           : Version 4 / Version 2
File size                                : 1.51 GiB
Duration                                 : 1 h 25 min
Overall bit rate                         : 2 519 kb/s
Movie name                               : 太阳之火 温暖你我
Encoded date                             : UTC 2017-05-28 20:29:27
Writing application                      : mkvmerge v8.4.0 ('A better way to fly') 32bit
Writing library                          : libebml v1.3.1 + libmatroska v1.4.2

Video
ID                                       : 1
Format                                   : AVC
Format/Info                              : Advanced Video Codec
Format profile                           : High@L3.1
Format settings, CABAC                   : Yes
Format settings, ReFrames                : 4 frames
Codec ID                                 : V_MPEG4/ISO/AVC
Duration                                 : 1 h 25 min
Bit rate                                 : 2 198 kb/s
Width                                    : 1 280 pixels
Height                                   : 720 pixels
Display aspect ratio                     : 16:9
Frame rate mode                          : Constant
Frame rate                               : 23.976 (24000/1001) FPS
Color space                              : YUV
Chroma subsampling                       : 4:2:0
Bit depth                                : 8 bits
Scan type                                : Progressive
Bits/(Pixel*Frame)                       : 0.099
Stream size                              : 1.32 GiB (87%)
Title                                    : 刀剑笑   太阳之火 压制
Writing library                          : x264 core 148 r2721+46 0c4b09a xiaowan [8-bit@all X86_64]
Encoding settings                        : cabac=1 / ref=4 / deblock=1:1:1 / analyse=0x3:0x133 / me=umh / subme=10 / psy=1 / fade_compensate=0.00 / psy_rd=0.30:0.00 / mixed_ref=1 / me_range=24 / chroma_me=1 / trellis=2 / 8x8dct=1 / cqm=0 / deadzone=21,11 / fast_pskip=1 / chroma_qp_offset=-2 / threads=6 / lookahead_threads=1 / sliced_threads=0 / nr=0 / decimate=1 / interlaced=0 / bluray_compat=0 / constrained_intra=0 / fgo=0 / bframes=3 / b_pyramid=2 / b_adapt=2 / b_bias=0 / direct=3 / weightb=1 / open_gop=0 / weightp=2 / keyint=240 / keyint_min=1 / scenecut=60 / intra_refresh=0 / rc_lookahead=60 / rc=crf / mbtree=1 / crf=21.0000 / qcomp=0.50 / qpmin=0:0:0 / qpmax=69:69:69 / qpstep=4 / ip_ratio=1.40 / aq=2:0.80 / aq-sensitivity=10.00 / aq-factor=1.00:1.00:1.00 / aq2=0 / aq3=0
Language                                 : Chinese
Default                                  : Yes
Forced                                   : No
Color range                              : Limited
Matrix coefficients                      : BT.601

Audio #1
ID                                       : 2
Format                                   : AAC
Format/Info                              : Advanced Audio Codec
Format profile                           : LC
Codec ID                                 : A_AAC
Duration                                 : 1 h 25 min
Bit rate                                 : 128 kb/s
Channel(s)                               : 2 channels
Channel positions                        : Front: L R
Sampling rate                            : 44.1 kHz
Frame rate                               : 43.066 FPS (1024 spf)
Compression mode                         : Lossy
Delay relative to video                  : 22 ms
Stream size                              : 78.6 MiB (5%)
Title                                    : china
Language                                 : Chinese
Default                                  : No
Forced                                   : No

Audio #2
ID                                       : 3
Format                                   : AC-3
Format/Info                              : Audio Coding 3
Format settings, Endianness              : Big
Codec ID                                 : A_AC3
Duration                                 : 1 h 25 min
Bit rate mode                            : Constant
Bit rate                                 : 192 kb/s
Channel(s)                               : 2 channels
Channel positions                        : Front: L R
Sampling rate                            : 48.0 kHz
Frame rate                               : 31.250 FPS (1536 spf)
Bit depth                                : 16 bits
Compression mode                         : Lossy
Stream size                              : 118 MiB (8%)
Title                                    : Lồng Tiếng-Syned by anvietcanh2@NetHD.org
Language                                 : Vietnamese
Service kind                             : Complete Main
Default                                  : Yes
Forced                                   : Yes

The Three Swordsmen 1994 ViE 720p WEB-DL DD2.0 x264-TYZH screenshots
The Three Swordsmen 1994 ViE 720p WEB-DL DD2.0 x264-TYZH screenshots
The Three Swordsmen 1994 ViE 720p WEB-DL DD2.0 x264-TYZH screenshots
The Three Swordsmen 1994 ViE 720p WEB-DL DD2.0 x264-TYZH screenshots
The Three Swordsmen 1994 ViE 720p WEB-DL DD2.0 x264-TYZH screenshots
The Three Swordsmen 1994 ViE 720p WEB-DL DD2.0 x264-TYZH screenshots
The Three Swordsmen 1994 ViE 720p WEB-DL DD2.0 x264-TYZH screenshots
The Three Swordsmen 1994 ViE 720p WEB-DL DD2.0 x264-TYZH screenshots
TitleDao jian xiao
Year1994
GenreAction
Rating5.2 (268 votes)
PlotDazzling swordplay and eye-poping battles highlight this story of the top three swordsmen in central China; Samurai, Smiling Sam and Big Knife who become involved in a plot to recover the Holy Sword and also avenge the murder of the Empress. Written by Towne 3, San Jose, Ca
DirectorTaylor Wong
CastsBrigitte Lin,Andy Lau,Elvis Tsui,Gaowa Siqin,See-Ho Leung…
Runtime86 min
GenresAction
Dao jian xiao


Tags

Other releases

Same genre with The Three Swordsmen 1994 ViE 720p WEB-DL DD2.0 x264-TYZH

Camille Claudel 1988 mHD BluRay FLAC2.0 x264-TRiMOnce Upon a Time in Mexico 1992-2003 mHD BluRay DD5.1 x264-TRiMVolcano 1997 mHD BluRay x264-BiRDThe Big Boss 1971 mHD BluRay DD5.1 x264-TRiMMojin The Lost Legend 2015 mHD BluRay DD5.1 x264-TRiMThe Long Good Friday 1980 720p BluRay FLAC1.0 x264-DON

Comment for The Three Swordsmen 1994 ViE 720p WEB-DL DD2.0 x264-TYZH

Only members can create comment.