NetHD.org

The Town 2010 Extended ViE mHD BluRay DD5.1 x264 TRiM

Download The Town 2010 Extended ViE mHD BluRay DD5.1 x264 TRiM 
Small DescriptionThị trấn tội ác l Thuyết Minh
Basic Info
Uploaded byAnonymous at 2019-08-08 17:25:39
Action
Hot Meter
  • Views: 1174
  • Hits: 255
  • Snatched: 210 x time(s)
  • Last Action: 2019-12-10 12:09:53
Peers34 Seeder | 0 Leecher




Quote


Bộ phim xoay quanh Doug MacRay (Ben Affleck), một tên tội phạm kì cựu, đồng thời là chỉ huy của nhóm cướp ngân hàng thô bạo luôn tự hào mình có thể cướp bất kỳ thứ gì dễ như trở bàn tay. Không một mối ràng buộc, Doug chưa bao giờ phải lo đến việc mất mát người thân.

Thế nhưng, mọi việc đã thay đổi trong phi vụ cuối cùng, khi họ quyết định bắt nữ quản lý nhà băng xinh đẹp Claire làm còn tin. Mặc dù đã được thả về an toàn sau đó, Claire bị ám ảnh vì nhận ra rằng những kẻ cướp này biết tên tuổi và nơi cô sống.
       
Nhưng nỗi lo sợ chẳng kéo dài lâu khi cô phải lòng một anh chàng quyến rũ và bí ẩn tên Doug, không ngờ rằng đó chính là kẻ từng bắt cô vài ngày trước. Cô tiết lộ với anh rằng mình có thể dễ dàng nhận ra giọng của các tên cướp nếu được nghe lại chúng. Nhưng Doug đáp lại rằng: “nó khó hơn em tưởng đó”. Sau đó, mối tình đam mê diễn ra nhanh chóng kéo đôi tình nhân vào vòng xoáy của quá nhiều sự nguy hiểm đang ập đến khi một điệp vụ FBI quyết tâm tìm mọi cách đưa nhóm cướp vào tù.



Quote


Complete name                  : The.Town.2010.Extended.ViE.mHD.BluRay.DD5.1.x264.TRiM
Format                         : Matroska
Format version                 : Version 2
File size                      : 3.27 GiB
Duration                       : 2 h 30 min
Overall bit rate               : 3 110 kb/s
Encoded date                   : UTC 2019-08-06 03:45:56
Writing application            : mkvmerge v5.5.0 ('Healer') built on Apr  6 2012 21:43:24
Writing library                : libebml v1.2.3 + libmatroska v1.3.0


Video
ID                             : 2
Format                         : AVC
Format/Info                    : Advanced Video Codec
Format profile                 : High@L4.1
Format settings, CABAC         : Yes
Format settings, RefFrames     : 5 frames
Muxing mode                    : Header stripping
Codec ID                       : V_MPEG4/ISO/AVC
Duration                       : 2 h 30 min
Bit rate                       : 2 469 kb/s
Width                          : 1 280 pixels
Height                         : 532 pixels
Display aspect ratio           : 2.40:1
Frame rate mode                : Constant
Frame rate                     : 23.976 FPS
Color space                    : YUV
Chroma subsampling             : 4:2:0
Bit depth                      : 8 bits
Scan type                      : Progressive
Bits/(Pixel*Frame)             : 0.151
Stream size                    : 2.53 GiB (77%)
Title                          : The.Town.2010.Extended.m720p.BluRay.AC3.x264.TRiM
Writing library                : x264 core 100 r1659 57b2e56
Encoding settings              : cabac=1 / ref=5 / deblock=1:-3:-3 / analyse=0x3:0x113 / me=umh / subme=10 / psy=1 / psy_rd=1.04:0.00 / mixed_ref=1 / me_range=32 / chroma_me=1 / trellis=2 / 8x8dct=1 / cqm=0 / deadzone=21,11 / fast_pskip=1 / chroma_qp_offset=-2 / threads=12 / sliced_threads=0 / nr=0 / decimate=1 / interlaced=0 / constrained_intra=0 / bframes=4 / b_pyramid=2 / b_adapt=2 / b_bias=0 / direct=3 / weightb=1 / open_gop=0 / weightp=2 / keyint=250 / keyint_min=25 / scenecut=40 / intra_refresh=0 / rc_lookahead=40 / rc=2pass / mbtree=1 / bitrate=2469 / ratetol=1.0 / qcomp=0.60 / qpmin=10 / qpmax=51 / qpstep=4 / cplxblur=20.0 / qblur=0.5 / ip_ratio=1.40 / aq=1:1.00
Language                       : English
Default                        : Yes
Forced                         : No


Audio #1
ID                             : 1
Format                         : MPEG Audio
Format version                 : Version 1
Format profile                 : Layer 3
Muxing mode                    : Header stripping
Codec ID                       : A_MPEG/L3
Codec ID/Hint                  : MP3
Duration                       : 2 h 30 min
Bit rate mode                  : Constant
Bit rate                       : 256 kb/s
Channel(s)                     : 2 channels
Sampling rate                  : 48.0 kHz
Compression mode               : Lossy
Stream size                    : 276 MiB (8%)
Language                       : Vietnamese
Default                        : Yes
Forced                         : Yes


Audio #2
ID                             : 3
Format                         : AC-3
Format/Info                    : Audio Coding 3
Format settings, Endianness    : Big
Muxing mode                    : Header stripping
Codec ID                       : A_AC3
Duration                       : 2 h 30 min
Bit rate mode                  : Constant
Bit rate                       : 384 kb/s
Channel(s)                     : 6 channels
Channel positions              : Front: L C R, Side: L R, LFE
Sampling rate                  : 48.0 kHz
Frame rate                     : 31.250 FPS (1536 SPF)
Bit depth                      : 16 bits
Compression mode               : Lossy
Stream size                    : 414 MiB (12%)
Title                          : AC3-5.1@384Kbps
Language                       : English
Service kind                   : Complete Main
Default                        : No
Forced                         : No


Text #1
ID                             : 4
Format                         : UTF-8
Codec ID                       : S_TEXT/UTF8
Codec ID/Info                  : UTF-8 Plain Text
Title                          : Phụ đề: Việt Ngữ
Language                       : Vietnamese
Default                        : Yes
Forced                         : No


Text #2
ID                             : 5
Format                         : UTF-8
Codec ID                       : S_TEXT/UTF8
Codec ID/Info                  : UTF-8 Plain Text
Title                          : Phụ đề: Anh Ngữ
Language                       : English
Default                        : No
Forced                         : No




The Town 2010 Extended ViE mHD BluRay DD5.1 x264 TRiM screenshots The Town 2010 Extended ViE mHD BluRay DD5.1 x264 TRiM screenshots The Town 2010 Extended ViE mHD BluRay DD5.1 x264 TRiM screenshots The Town 2010 Extended ViE mHD BluRay DD5.1 x264 TRiM screenshots The Town 2010 Extended ViE mHD BluRay DD5.1 x264 TRiM screenshots The Town 2010 Extended ViE mHD BluRay DD5.1 x264 TRiM screenshots

TitleThe Town
Year2010
GenreCrime
Rating7.5 (329,920 votes)
PlotThe Charlestown neighborhood of Boston is renowned for churning out a high number of armed robbers, generation after generation. These robbers never leave their Charlestown life on their own volition, the neighborhood where there is an unwritten code to protect that lifestyle. Such robbers include friends Doug MacRay, James Coughlin, Albert 'Gloansy' Magloan and Desmond Elden. Doug and James in particular treat each other like family, as the Coughlins have realistically been as such to Doug…
DirectorBen Affleck
CastsBen Affleck,Rebecca Hall,Jon Hamm,Jeremy Renner,Blake Lively…
Runtime125 min
The Town


13 Assassins 2010 Extended 1080p BluRay AC3 x264-EbPThe Predator 2018 1080p Blu-ray AVC DTS-HD MA7.1-MTeamMaster 2016 mHD BluRay DD5.1 x264-TRiMNarcos S03 1080p NF WEB-DL DD5.1 x264-NTbPoker Night 2014 720p BluRay DD5.1 x264-CRiMEMechanic Resurrection 2016 ViE mHD BluRay DD5.1 x264-[TRiM-JadViE]

Only members can create comment.