NetHD.org

The Victorias Secret Fashion Show 2018 1080p AMZN WEB-DL DDP5.1 H.264-NTb

Download The Victorias Secret Fashion Show 2018 1080p AMZN WEB-DL DDP5.1 H.264-NTb 
Small DescriptionMKV H.264 WEB-DL 1080p @ 13.6Mb/s
Basic Info
Uploaded bydolphinfat (Power User) at 2018-12-04 15:44:36
Action
Social
  • 21
Hot Meter
  • Views: 1545
  • Hits: 387
  • Snatched: 287 x time(s)
  • Last Action: 2019-02-19 00:36:45
Peers24 Seeder | 0 Leecher


Screenshots:

[justify]
The Victorias Secret Fashion Show 2018 1080p AMZN WEB-DL DDP5.1 H.264-NTb screenshots

[/justify]


[justify]
The Victorias Secret Fashion Show 2018 1080p AMZN WEB-DL DDP5.1 H.264-NTb screenshots

[/justify]


[justify]
The Victorias Secret Fashion Show 2018 1080p AMZN WEB-DL DDP5.1 H.264-NTb screenshots

[/justify]
MediaInfo


ID : 1


Format : AVC


Format/Info : Advanced Video Codec


Format profile : High@L4


Format settings : CABAC / 4 Ref Frames


Format settings, CABAC : Yes


Format settings, ReFrames : 4 frames


Codec ID : V_MPEG4/ISO/AVC


Duration : 40 min 59 s


Bit rate : 13.6 Mb/s


Width : 1 920 pixels


Height : 1 080 pixels


Display aspect ratio : 16:9


Frame rate mode : Constant


Frame rate : 29.970 (30000/1001) FPS


Color space : YUV


Chroma subsampling : 4:2:0


Bit depth : 8 bits


Scan type : Progressive


Bits/(Pixel*Frame) : 0.218


Stream size : 3.88 GiB (95%)


Default : Yes


Forced : No


Color range : Limited


Color primaries : BT.709


Transfer characteristics : BT.709


Matrix coefficients : BT.709





Audio


ID : 2


Format : E-AC-3


Format/Info : Enhanced AC-3


Commercial name : Dolby Digital Plus


Codec ID : A_EAC3


Duration : 40 min 59 s


Bit rate mode : Constant


Bit rate : 640 kb/s


Channel(s) : 6 channels


Channel layout : L R C LFE Ls Rs


Sampling rate : 48.0 kHz


Frame rate : 31.250 FPS (1536 SPF)


Compression mode : Lossy


Stream size : 188 MiB (5%)


Language : English


Service kind : Complete Main


Default : Yes


Forced : No



Star Wars: Episode VII - The Force Awakens 2015 Bonus Disc 1080p Blu-ray AVC DD5.1-MTeamVeronica Mars 2014 720p BluRay DD5.1 x264-EbPA Chinese Fairy Tale 2011 mHD BluRay DD5.1 x264-TRiMHîrô mania: Seikatsu 2016 720p BluRay DD5.1 x264 DTS-WiKiDeadman Inferno 2015 720p BluRay DD5.1 x264-WiKiSnowden 2016 1080p BluRay DTS x264-VietHD

Only members can create comment.