NetHD.org

The Victorias Secret Fashion Show 2018 1080p AMZN WEB-DL DDP5.1 H.264-NTb

Download The Victorias Secret Fashion Show 2018 1080p AMZN WEB-DL DDP5.1 H.264-NTb 
Small DescriptionMKV H.264 WEB-DL 1080p @ 13.6Mb/s
Basic Info
Uploaded bydolphinfat (Elite User) at 2018-12-04 15:44:36
Action
Hot Meter
  • Views: 2073
  • Hits: 404
  • Snatched: 299 x time(s)
  • Last Action: 2019-07-18 01:17:28
Peers6 Seeder | 0 Leecher



Screenshots:

[justify]
The Victorias Secret Fashion Show 2018 1080p AMZN WEB-DL DDP5.1 H.264-NTb screenshots

[/justify]


[justify]
The Victorias Secret Fashion Show 2018 1080p AMZN WEB-DL DDP5.1 H.264-NTb screenshots

[/justify]


[justify]
The Victorias Secret Fashion Show 2018 1080p AMZN WEB-DL DDP5.1 H.264-NTb screenshots

[/justify]
MediaInfo


ID : 1


Format : AVC


Format/Info : Advanced Video Codec


Format profile : High@L4


Format settings : CABAC / 4 Ref Frames


Format settings, CABAC : Yes


Format settings, ReFrames : 4 frames


Codec ID : V_MPEG4/ISO/AVC


Duration : 40 min 59 s


Bit rate : 13.6 Mb/s


Width : 1 920 pixels


Height : 1 080 pixels


Display aspect ratio : 16:9


Frame rate mode : Constant


Frame rate : 29.970 (30000/1001) FPS


Color space : YUV


Chroma subsampling : 4:2:0


Bit depth : 8 bits


Scan type : Progressive


Bits/(Pixel*Frame) : 0.218


Stream size : 3.88 GiB (95%)


Default : Yes


Forced : No


Color range : Limited


Color primaries : BT.709


Transfer characteristics : BT.709


Matrix coefficients : BT.709





Audio


ID : 2


Format : E-AC-3


Format/Info : Enhanced AC-3


Commercial name : Dolby Digital Plus


Codec ID : A_EAC3


Duration : 40 min 59 s


Bit rate mode : Constant


Bit rate : 640 kb/s


Channel(s) : 6 channels


Channel layout : L R C LFE Ls Rs


Sampling rate : 48.0 kHz


Frame rate : 31.250 FPS (1536 SPF)


Compression mode : Lossy


Stream size : 188 MiB (5%)


Language : English


Service kind : Complete Main


Default : Yes


Forced : No



The Longest Ride 2015 ViE mHD BluRay DD5.1 x264-TRiMBreathless 1983 720p BluRay DTS X264-JaphsonLive Free or Die Hard 2007 ViE mHD Bluray DD5.1 x264-TRiMDefiance 2008 720p BluRay DD5.1 x264-CtrlHDThe Myth 2005 ViE 720p BluRay DTS x264-ESiR&HDATThe Scorpion: King Rise Of A Warrior 2008 mHD BluRay DD5.1 x264-TRiM

Only members can create comment.