The Walking Dead S09E01 FOX 1080p WEB-DL DD2.0 H.264

Download The Walking Dead S09E01 FOX 1080p WEB-DL DD2.0 H.264 
Small DescriptionSheriff Deputy Rick Grimes gets shot and falls into a coma. When awoken he finds himself in a Zombie Apocalypse. Not knowing what to do he sets out to find his family, after he's done that he gets connected to a group to become the leader. He takes charge and tries to help this group of people survive, find a place to live, and get them food. This show is all about survival, the risks, and the things you'll have to do to survive. Written by jzirkle1
Basic Info
Uploaded byAnonymous at 2018-10-11 16:09:15
Action
Social
  • 1
Hot Meter
  • Views: 100
  • Hits: 10
  • Snatched: 6 x time(s)
  • Last Action: 2018-10-21 19:45:18
Peers1 Seeder | 0 Leecher
The Walking Dead S09E01 FOX 1080p WEB-DL DD2.0 H.264 screenshots













The Walking Dead S09E01 FOX 1080p WEB-DL DD2.0 H.264 screenshots


General
Unique ID                                : 180115793161991625797988446721953989278 (0x87810A3A36C2AA9D8B9A62018B6B829E)
Complete name                            : F:\MOVIE\The.Walking.Dead.S09E01.1080p.WEB-DL.FOX.mkv
Format                                   : Matroska
Format version                           : Version 2
File size                                : 5.85 GiB
Duration                                 : 56 min 10 s
Overall bit rate                         : 14.9 Mb/s
Encoded date                             : UTC 2018-10-09 21:00:31
Writing application                      : mkvmerge v7.8.0 ('River Man') 32bit built on Apr  3 2015 12:11:22
Writing library                          : libebml v1.3.1 + libmatroska v1.4.2

Video
ID                                       : 1
Format                                   : AVC
Format/Info                              : Advanced Video Codec
Format profile                           : High@L4
Format settings                          : CABAC / 4 Ref Frames
Format settings, CABAC                   : Yes
Format settings, RefFrames               : 4 frames
Codec ID                                 : V_MPEG4/ISO/AVC
Duration                                 : 56 min 10 s
Bit rate                                 : 14.0 Mb/s
Width                                    : 1 920 pixels
Height                                   : 1 080 pixels
Display aspect ratio                     : 16:9
Frame rate mode                          : Constant
Frame rate                               : 25.000 FPS
Color space                              : YUV
Chroma subsampling                       : 4:2:0
Bit depth                                : 8 bits
Scan type                                : Progressive
Bits/(Pixel*Frame)                       : 0.271
Stream size                              : 5.51 GiB (94%)
Language                                 : English
Default                                  : Yes
Forced                                   : No
Color range                              : Limited
Color primaries                          : BT.709
Transfer characteristics                 : BT.709
Matrix coefficients                      : BT.709

Audio #1
ID                                       : 2
Format                                   : AC-3
Format/Info                              : Audio Coding 3
Codec ID                                 : A_AC3
Duration                                 : 56 min 10 s
Bit rate mode                            : Constant
Bit rate                                 : 192 kb/s
Channel(s)                               : 2 channels
Channel positions                        : Front: L R
Sampling rate                            : 48.0 kHz
Frame rate                               : 31.250 FPS (1536 SPF)
Bit depth                                : 16 bits
Compression mode                         : Lossy
Stream size                              : 77.1 MiB (1%)
Title                                    : FOX
Language                                 : Russian
Service kind                             : Complete Main
Default                                  : Yes
Forced                                   : No

Audio #2
ID                                       : 3
Format                                   : AC-3
Format/Info                              : Audio Coding 3
Codec ID                                 : A_AC3
Duration                                 : 56 min 10 s
Bit rate mode                            : Constant
Bit rate                                 : 384 kb/s
Channel(s)                               : 6 channels
Channel positions                        : Front: L C R, Side: L R, LFE
Sampling rate                            : 48.0 kHz
Frame rate                               : 31.250 FPS (1536 SPF)
Bit depth                                : 16 bits
Compression mode                         : Lossy
Stream size                              : 154 MiB (3%)
Language                                 : English
Service kind                             : Complete Main
Default                                  : No
Forced                                   : No

Text
ID                                       : 4
Format                                   : UTF-8
Codec ID                                 : S_TEXT/UTF8
Codec ID/Info                            : UTF-8 Plain Text
Language                                 : English
Default                                  : No
Forced                                   : No













The Walking Dead S09E01 FOX 1080p WEB-DL DD2.0 H.264 screenshots


The Walking Dead S09E01 FOX 1080p WEB-DL DD2.0 H.264 screenshotsThe Walking Dead S09E01 FOX 1080p WEB-DL DD2.0 H.264 screenshotsThe Walking Dead S09E01 FOX 1080p WEB-DL DD2.0 H.264 screenshots
The Walking Dead S09E01 FOX 1080p WEB-DL DD2.0 H.264 screenshotsThe Walking Dead S09E01 FOX 1080p WEB-DL DD2.0 H.264 screenshotsThe Walking Dead S09E01 FOX 1080p WEB-DL DD2.0 H.264 screenshots

TitleXac Song
Year2010
Genre
Rating8.4 (754,628 votes)
PlotSheriff Deputy Rick Grimes gets shot and falls into a coma. When awoken he finds himself in a Zombie Apocalypse. Not knowing what to do he sets out to find his family, after he's done that he gets connected to a group to become the leader. He takes charge and tries to help this group of people survive, find a place to live, and get them food. This show is all about survival, the risks, and the things you'll have to do to survive. Written by jzirkle1
Directorn/A
CastsNorman Reedus,Melissa McBride,Andrew Lincoln,Lauren Cohan,Danai Gurira…
Runtime44 min
Genres
Xac Song


Tags

Other releases

Same genre with The Walking Dead S09E01 FOX 1080p WEB-DL DD2.0 H.264

The lost bladesman 2011 mHD BluRay x264-EPiK  The Bourne Legacy 2012 ViE 720p Bluray DTS x264-VAVCity Under Siege 2010 mHD BluRay DD5.1 x264-TRiM Fighter in the Wind 2004 720p BluRay x264-GiMCHiThe Hunger Games 2012 1080p Blu-ray AVC DTS-HD MA 7.1-CHDBits9 2009 REPACK 720p BluRay DTS x264-EbP

Comment for The Walking Dead S09E01 FOX 1080p WEB-DL DD2.0 H.264

Only members can create comment.