NetHD.org

The Whiskey Bandit 2017 1080p BluRay DTS x264-HyperX

Download The Whiskey Bandit 2017 1080p BluRay DTS x264-HyperX 
Small DescriptionTên Cướp Nghiện Rượu | IMDb 7.6 | Vietsub
Basic Info
Uploaded byJonhy (Bố Quẩy) at 2019-06-12 19:13:28
Action
Hot Meter
  • Views: 490
  • Hits: 61
  • Snatched: 38 x time(s)
  • Last Action: 2019-08-21 05:01:41
Peers4 Seeder | 0 Leecher



The Whiskey Bandit 2017 1080p BluRay DTS x264-HyperX screenshots


The Whiskey Bandit 2017 1080p BluRay DTS x264-HyperX screenshots



Quote
Một gã trai gai góc táo bạo trở thành ngôi sao. Gã đã làm điều mà người khác không dám làm. Luôn đi trước cảnh sát một bước và đặc biệt là luôn uống whisky trước khi hành sự. Đó là Attila Ambrus, còn được gọi là Viszkis với biệt danh The Whiskey Robber, là một tên cướp ngân hàng và là vận động viên khúc côn cầu trên băng chuyên nghiệp. Sinh ra ở Csíkszereda, Transylvania, Rumania, nơi anh trải qua phần lớn thời thơ ấu giông tố. Khởi đầu ở với bà ngoại, sau đến người cha nát rượu, rồi đi làm con nuôi, nhưng không nơi nào Attila ở được lâu. Là một đứa trẻ ngỗ ngược nên cuối cùng anh bị gửi vào trường giáo dưỡng cho đến khi gia nhập quân đội. Vào cuối những năm 1980, Attila trốn thoát đến Hungary bằng cách trốn dưới tàu chở hàng. Nhưng cuộc sống mới hóa ra cũng đầy khó khăn. Tiếng là thủ môn của đội khúc côn cầu Újpest, nhưng vẫn không có tiền, không có bạn gái. Attila bắt đầu cướp bưu điện, ngân hàng, văn phòng du lịch. Nhờ sự liều lĩnh, nhanh nhẹn và tỉ mỉ, anh trở nên khét tiếng trong những năm 1990 với một loạt gần 30 vụ cướp ở trong và xung quanh thủ đô Budapest. Tuy được giới truyền thông xưng tụng như một “tội phạm quý ông”, thường được so sánh với Sándor Rózsa, phiên bản Robin Hood của Hungary, nhưng anh chưa một lần nào làm tổn thương bất cứ ai. Vì thế công chúng luôn coi anh như một anh hùng của thời đại trong suốt một thập kỷ sau thời kỳ nhà nước Cộng sản sụp đổ. Ambrus cuối cùng đã bị bắt (do sơ hở của đồng đội) và ngồi tù trong khoảng 12 năm, được thả năm 2012, nhờ tài của một trong những luật sư giỏi nhất Hungary.




Cuốn sách hồi ký Ballad of the Whiskey Robber (2004) về cuộc đời Attila Ambrus do Julian Rubinstein viết là cảm hứng cho đạo diễn Nimród Antal xây dựng bộ phim năm 2017 với nam diễn viên Bence Szalay trong vai Attila Ambrus và Piroska Móga vai cô bạn gái Kata. Một bộ phim hành động tội phạm lôi cuốn, nhịp độ diễn biến nhanh với nhiều tình tiết, bắn súng và vui nhộn, với một anh hùng hấp dẫn, và một cái nhìn châm biếm nhẹ về sự chuyển tiếp hậu cộng sản ở Hungary.




The Whiskey Bandit 2017 1080p BluRay DTS x264-HyperX screenshots



Quote
Format : Matroska
Format version : Version 4 / Version 2
File size : 15.3 GiB
Duration : 2 h 7 min
Overall bit rate : 17.2 Mb/s
Encoded date : UTC 2018-04-12 05:18:34
Writing application : mkvmerge v22.0.0 ('At The End Of The World') 64-bit
Writing library : libebml v1.3.5 + libmatroska v1.4.8

Video
ID : 1
Format : AVC
Format/Info : Advanced Video Codec
Format profile : High@L4.1
Format settings, CABAC : Yes
Format settings, RefFrames : 5 frames
Codec ID : V_MPEG4/ISO/AVC
Duration : 2 h 7 min
Bit rate : 15.7 Mb/s
Width : 1 920 pixels
Height : 796 pixels
Display aspect ratio : 2.40:1
Frame rate mode : Constant
Frame rate : 24.000 FPS
Color space : YUV
Chroma subsampling : 4:2:0
Bit depth : 8 bits
Scan type : Progressive
Bits/(Pixel*Frame) : 0.428
Stream size : 14.0 GiB (91%)
Title : HyperX
Writing library : x264 core 152 r2851kMod ba24899
Encoding settings : cabac=1 / ref=5 / deblock=1:-3:-3 / analyse=0x3:0x133 / me=umh / subme=10 / psy=1 /
Language : Hungarian
Default : Yes
Forced : No

Audio
ID : 2
Format : DTS
Format/Info : Digital Theater Systems
Mode : 16
Format settings, Endianness : Big
Codec ID : A_DTS
Duration : 2 h 7 min
Bit rate mode : Constant
Bit rate : 1 509 kb/s
Channel(s) : 6 channels
Channel positions : Front: L C R, Side: L R, LFE
Sampling rate : 48.0 kHz
Frame rate : 93.750 FPS (512 SPF)
Bit depth : 24 bits
Compression mode : Lossy
Stream size : 1.34 GiB (9%)
Language : Hungarian
Default : Yes
Forced : No




The Whiskey Bandit 2017 1080p BluRay DTS x264-HyperX screenshots


The Whiskey Bandit 2017 1080p BluRay DTS x264-HyperX screenshotsThe Whiskey Bandit 2017 1080p BluRay DTS x264-HyperX screenshotsThe Whiskey Bandit 2017 1080p BluRay DTS x264-HyperX screenshotsThe Whiskey Bandit 2017 1080p BluRay DTS x264-HyperX screenshotsThe Whiskey Bandit 2017 1080p BluRay DTS x264-HyperX screenshotsThe Whiskey Bandit 2017 1080p BluRay DTS x264-HyperX screenshots


The Whiskey Bandit 2017 1080p BluRay DTS x264-HyperX screenshots



TitleA Viszkis
Year2017
Genre
Rating7.6 (6,425 votes)
PlotA tough guy turned star. He did something others wouldn't dare. Always one step ahead of the cops and always downed a whiskey before robbing a bank. Growing up in a broken home Attila (Bence Szalay) was a troubled teenager, even spent time in a youth prison. Through a rather bizarre turn of events he escaped to Hungary from Transylvania. But his new life turned out to be much harder than the old one. He was the goal-keeper on a hockey team, but still had no money, no girlfriend; but then he…
DirectorNimród Antal
CastsBence Szalay,Zoltán Schneider,Viktor Klem,Piroska Móga,Andor Lukáts…
Runtime126 min
A Viszkis


Full Metal Jacket 1987 REMASTERED 720p BluRay AC3 x264-RightSiZEThe Impaler 2013 720p BluRay DTS x264-RUSTEDClass Of 1984 mHD BluRay DD5.1 x264-TRiMDistorted 2018 1080p BluRay DTS x265-10bit-HDSJurassic Prey 2015 720p BluRay DTS x264-RUSTEDSeven Swords 2005 1080p Blu-ray AVC LPCM 7.1-OurDisc

Only members can create comment.