Three Billboards Outside Ebbing, Missouri 2017 DVDScr DD2.0 XviD-Hive-CM8

Download Three Billboards Outside Ebbing, Missouri 2017 DVDScr DD2.0 XviD-Hive-CM8 
Small Description
Basic Info
Uploaded byDelphinus (Moderator) at 2017-12-31 10:47:32
Action
Social
  • 0
Hot Meter
  • Views: 96
  • Hits: 18
  • Snatched: 5 x time(s)
  • Last Action: 2018-02-18 22:23:10
Peers0 Seeder | 0 Leecher
Three Billboards Outside Ebbing, Missouri 2017 DVDScr DD2.0 XviD-Hive-CM8 screenshots
Quote
Video
ID                                       : 0
Format                                   : MPEG-4 Visual
Format profile                           : Advanced Simple@L5
Format settings                          : BVOP2 / QPel
Format settings, BVOP                    : 2
Format settings, QPel                    : Yes
Format settings, GMC                     : No warppoints
Format settings, Matrix                  : Default (H.263)
Muxing mode                              : Packed bitstream
Codec ID                                 : XVID
Codec ID/Hint                            : XviD
Duration                                 : 1 h 55 min
Bit rate                                 : 1 619 kb/s
Width                                    : 720 pixels
Height                                   : 304 pixels
Display aspect ratio                     : 2.35:1
Frame rate                               : 29.970 (30000/1001) FPS
Color space                              : YUV
Chroma subsampling                       : 4:2:0
Bit depth                                : 8 bits
Scan type                                : Progressive
Compression mode                         : Lossy
Bits/(Pixel*Frame)                       : 0.247
Stream size                              : 1.30 GiB (86%)
Writing library                          : XviD 1.2.1 (UTC 2008-12-04)

Audio
ID                                       : 1
Format                                   : AC-3
Format/Info                              : Audio Coding 3
Format settings, Endianness              : Big
Codec ID                                 : 2000
Duration                                 : 1 h 55 min
Bit rate mode                            : Constant
Bit rate                                 : 256 kb/s
Channel(s)                               : 2 channels
Channel positions                        : Front: L R
Sampling rate                            : 48.0 kHz
Frame rate                               : 31.250 FPS (1536 SPF)
Bit depth                                : 16 bits
Compression mode                         : Lossy
Delay relative to video                  : 28 ms
Stream size                              : 211 MiB (14%)
Alignment                                : Split accross interleaves
Interleave, duration                     : 33  ms (1.00 video frame)
Interleave, preload duration             : 500  ms
Service kind                             : Complete Main


Three Billboards Outside Ebbing, Missouri 2017 DVDScr DD2.0 XviD-Hive-CM8 screenshots
Three Billboards Outside Ebbing, Missouri 2017 DVDScr DD2.0 XviD-Hive-CM8 screenshots

TitleThree Billboards Outside Ebbing, Missouri
Year2017
GenreComedy / Crime / Drama
Rating8.4 (17,014 votes)
PlotTHREE BILLBOARDS OUTSIDE EBBING, MISSOURI is a darkly comic drama from Academy Award nominee Martin McDonagh (In Bruges). After months have passed without a culprit in her daughter's murder case, Mildred Hayes (Academy Award winner Frances McDormand) makes a bold move, painting three signs leading into her town with a controversial message directed at William Willoughby (Academy Award nominee Woody Harrelson), the town's revered chief of police. When his second-in-command Officer Dixon (Sam…
DirectorMartin McDonagh
CastsFrances McDormand / Caleb Landry Jones / Kerry Condon / Sam Rockwell / Alejandro Barrios…
Runtime115 min
GenresComedy / Crime / Drama
Three Billboards Outside Ebbing, Missouri


Tags

Other releases

Same genre with Three Billboards Outside Ebbing, Missouri 2017 DVDScr DD2.0 XviD-Hive-CM8

Bedrag S01 720p BluRay DTS x264-VietHDThe Thomas Crown Affair 1999 720p BluRay x264-CtrlHDLéon 1994 1080p BluRay DD5.1 x264-CtrlHDHannibal S01 720p WEB-DL DD5.1 H.264-NTbOfficer Down 2013 720p BluRay DD5.1 x264-SbRGoodfellas 1990 720p BluRay DD5.1 x264-DON

Comment for Three Billboards Outside Ebbing, Missouri 2017 DVDScr DD2.0 XviD-Hive-CM8

Only members can create comment.