Thuy Nga Paris By Night 109 VIP PARTY NTSC DVD9

Download Thuy Nga Paris By Night 109 VIP PARTY NTSC DVD9 
Small Description30th Anniversary Celebration: VIP PARTY in Las Vegas
Basic Info
Uploaded bytuandaica (Crazy User) at 2013-12-30 17:27:35
Action
Social
  • 60
Hot Meter
  • Views: 28328
  • Hits: 600
  • Snatched: 306 x time(s)
  • Last Action: 2018-08-11 07:33:47
Peers0 Seeder | 0 Leecher
Thuy Nga Paris By Night 109 VIP PARTY NTSC DVD9 screenshots


Thuy Nga Paris By Night 109 VIP PARTY NTSC DVD9

SONG LIST:

DISC #1:
01. Đêm Huyền Diệu - Ngọc Anh
02. Tạ Ơn Con Gái - Mạnh Quỳnh
03. Hương Xưa - Duy Trường
04. Bài Tình Ca Cho Em - Thái Châu
05. Tình Phai - Nguyễn Hưng & Lưu Bích
06. Mộng Chiều Xuân - Như Quỳnh
07. Gặp Nhau Làm Ngơ - Hương Thủy
08. Lạnh Lùng - Hạ Vy
09. Phut Your Head on My Shoulder - Tuấn Ngọc
10. Hotel California - Don Hồ
11. Niệm Khúc Cuối - Họa Mi
12. Hôn - Ý Lan
13. Nỗi Buồn Gác Trọ - Mai Thiên Vân
14. Bài Tango Cho Em - Hồ Lệ Thu
15. Ngày Em Đến - Thanh Hà
16. Ảo Ảnh - Lam Anh & Trần Thái Hòa
17. Lâu Đài Tình Ái - Minh Tuyết & Bằng Kiều

DISC #2:
01. Mystical Night - Tóc Tiên & Mai Tiến Dũng
02. Chuyện Ba Người - Quang Lê
03. Ngựa Ô Thương Nhớ - Thiên Tôn & Anh Tú
04. Tình Hờ - Thu Phương
05. Xin Hãy Rời Xa - Quang Dũng
06. Stand By Me - Khánh Hà
07. Vết Son Trên Áo - Quỳnh Vi
08. Tàn Tro - Diễm Sương
09. Không - Lương Tùng Quang
10. Hài Kịch: Đại Gia Đinh - Hoài Linh, Chí Tài, Thúy Nga, Việt Hương, Hoài Tâm, Long Đẹp Trai, Bé Tý, Nguyên Khoa
11. Phỏng Vấn Ca Sĩ on Red Carpet


Thuy Nga Paris By Night 109 VIP PARTY NTSC DVD9 screenshots Thuy Nga Paris By Night 109 VIP PARTY NTSC DVD9 screenshots Thuy Nga Paris By Night 109 VIP PARTY NTSC DVD9 screenshots

Quote
MEDIAINFO
Format                           : MPEG-PS
File size                        : 1 024 MiB
Duration                         : 30mn 28s
Overall bit rate mode            : Variable
Overall bit rate                 : 4 698 Kbps

Video
ID                               : 224 (0xE0)
Format                           : MPEG Video
Format version                   : Version 2
Format profile                   : Main@Main
Format settings, BVOP            : Yes
Format settings, Matrix          : Custom
Duration                         : 30mn 28s
Bit rate mode                    : Variable
Bit rate                         : 4 157 Kbps
Maximum bit rate                 : 9 800 Kbps
Width                            : 720 pixels
Height                           : 480 pixels
Display aspect ratio             : 16:9
Frame rate                       : 29.970 fps
Standard                         : NTSC
Color space                      : YUV
Chroma subsampling               : 4:2:0
Bit depth                        : 8 bits
Scan type                        : Interlaced
Scan order                       : Bottom Field First
Compression mode                 : Lossy
Bits/(Pixel*Frame)               : 0.401
Stream size                      : 906 MiB (88%)
Writing library                  : DVDSP_MARKER_INFO 1.0 / 22 / 135817 407858451 2 14 / 161203 484092609 2 20 / 121227 364044681 2 13 / 171980 516455940 2 21 / 150884 453104652 2 18 / 140418 421675254 2 15 / 94724 284456172 2 11 / 144325 433407975 2 16 / 199074 597819222 2 23 / 10720 32192160 1 3 / 85105 255570315 2 10 / 1016 3051048 1 2 / 20852 62618556 1 4 / 30369 91198107 1 5 / 153848 462005544 2 19 / 68986 207164958 1 8 / 42788 128492364 1 6 / 147567 443143701 2 17 / 58464 175567392 1 7 / 76834 230732502 1 9 / 186057 558729171 2 22 / 107227 322002681 2 12 /

Audio
ID                               : 189 (0xBD)-128 (0x80)
Format                           : AC-3
Format/Info                      : Audio Coding 3
Mode extension                   : CM (complete main)
Muxing mode                      : DVD-Video
Duration                         : 30mn 28s
Bit rate mode                    : Constant
Bit rate                         : 448 Kbps
Channel(s)                       : 2 channels
Channel positions                : Front: L R
Sampling rate                    : 48.0 KHz
Bit depth                        : 16 bits
Compression mode                 : Lossy
Delay relative to video          : -538ms
Stream size                      : 97.6 MiB (10%)




Tags

Other releases

Name
Paris By Night 1-125 Collection DVDRip312739
Paris By Night : Divos 2018 NTSC 2xDVD9120467
Paris By Night 107 - Nguyễn Ngọc Ngạn 20 Năm Sân Khấu mHD BluRay DD5.1..90829
Paris by Night 113 ''Mừng Tuổi Mẹ'' 2015 mHD BluRay DD2.0 x264-TRiM702350
Paris By Night 114: 1975-2015 Tôi Là Người Việt Nam NTSC DVDRip DD2 0 x26..401253
Thuy Nga Paris By Night 112 Dong 2014 mHD-720p Bluray AC3 x264-TRiM302321
Thuy Nga Paris By Night 111 S 2014 720p BluRay DD2 0 x264-VietHD20884
Paris By Night 106 - Silk mHD BluRay DD5.1 x264-TRiM2033875
Paris By Night 111 S 2014 1080i Blu-ray AVC DD 5.12032554
Paris By Night 114: 1975-2015 Tôi Là Người Việt Nam DVD910750
Thúy Nga Paris By Night 112 : Đông 2014 1080i Blu-ray AVC DD5.110734
Paris By Night 108 - ThoiGian mHD BluRay DD5.1 x264-TRiM10150692
Paris by Night 109 – 30th Anniversary Celebration [DVD9] [Remux]0079481
Paris By Night 105 Người Tình - The Lovers 1080i BluRay x26400507
Dvd Paris By Night 68: Nửa Vầng Trăng0058
Tổng hợp hài kịch PARIS BY NIGHT001371
Thuy Nga Paris by Night 112 Dong 720p BluRay AC3 x264-EbP00230
Paris By Night 106 Bluray00324
Thuy Nga Gloria 2 De Chua Den DVDRip NTSC00145
Tuyển tập hài Thúy Nga Paris By Night DVDrip00302
Paris By Night Karaoke 41 - Nguoi Tinh Que Huong DVD 9 _iso000
Paris By Night Karaoke 61 - Go Cua Trai Tim DVD9 _Iso0028
Paris By Night 108 Time - Thời Gian - DVD500886
Paris By Night 114: 1975-2015 Tôi Là Người Việt Nam DVD500167
Thuy Nga Paris by Night 107 Nguyen Ngoc Ngan 20 Nam San Khau 720p BluRay DD5.1 x..00741
Paris By Night 108 Time 1080i Blu-ray AVC DD5.100478
Paris By Night 110 Phat Loc Dau Nam DVD5 Remux00709
Paris By Night 109 30th ANNIVERSARY CELEBRATION Bluray0064
Paris By Night 105 The Lovers mHD BluRay DD5.1 x264-TRiM022319

Same genre with Thuy Nga Paris By Night 109 VIP PARTY NTSC DVD9

Music Lovers 2012.10.08 720p HDTV AAC x264-TRiMParis By Night 81: Âm Nhạc Không Biên Giới 2006 NTSC DVD9Thalia - Primera Fila 2010 1080p Blu-ray AVC DD5.1 LPCM-Sony MusicParis By Night 120: Còn Chút Gì Để Nhớ 2016 NTSC 3xDVD9-NetHDLive Show Quang Lê - Hát Trên Quê Hương 2 2016 720p BluRay DD2.0 x264-TRiMParis By Night 86: Talen Show Semi Finals - Giải Bán Kết  2007 NTSC DVD9

Comment for Thuy Nga Paris By Night 109 VIP PARTY NTSC DVD9

Only members can create comment.