Cloak & Dagger S01E03 720p HDTV x264-LUCIDTV

Download Cloak & Dagger S01E03 720p HDTV x264-LUCIDTV 
Small DescriptionTandy Bowen and Tyrone Johnson, two teenagers from different backgrounds, acquire superpowers while forming a romantic relationship. They soon realize that their powers work better when they are together, but their feelings for each other make their already complicated world even more challenging. Written by priba_dj
Basic Info
Uploaded bydpc (Uploader) at 2018-06-15 10:59:24
Action
Social
  • 0
Hot Meter
  • Views: 96
  • Hits: 7
  • Snatched: 2 x time(s)
  • Last Action: 2018-06-22 14:10:16
Peers2 Seeder | 0 Leecher
Cloak & Dagger S01E03 720p HDTV x264-LUCIDTV screenshots


Đối với những ai yêu thích Marvel với tông màu tươi sáng và hài hước thì Cloak and Dagger của đài ABC là một sự lựa chọn không tồi. Bộ phim sẽ theo chân hai siêu anh hùng tuổi teen, Tyrone Johnson and Tandy Bowen, trên con đường khám phá bản thân cũng như điều khiển siêu năng lực của mình. Tandy Bowen với biệt danh Dagger có khả năng phóng ra những con dao bằng ánh sáng còn Tyrone Johnson là Cloak cùng năng lực nhận chìm kẻ khác vào bóng tối. Với lứa tuổi các nhân vật cũng như kênh phát sóng thì Cloak and Dagger sẽ hướng tới đối tượng gia đình và thanh thiếu niên.


Cloak & Dagger S01E03 720p HDTV x264-LUCIDTV screenshots


Quote
Video
ID                                       : 1
Format                                   : AVC
Format/Info                              : Advanced Video Codec
Format profile                           : High@L4.1
Format settings                          : CABAC / 5 Ref Frames
Format settings, CABAC                   : Yes
Format settings, RefFrames               : 5 frames
Codec ID                                 : V_MPEG4/ISO/AVC
Duration                                 : 39 min 32 s
Bit rate                                 : 2 937 kb/s
Width                                    : 1 280 pixels
Height                                   : 720 pixels
Display aspect ratio                     : 16:9
Frame rate mode                          : Constant
Frame rate                               : 23.976 (24000/1001) FPS
Color space                              : YUV
Chroma subsampling                       : 4:2:0
Bit depth                                : 8 bits
Scan type                                : Progressive
Bits/(Pixel*Frame)                       : 0.133
Stream size                              : 831 MiB (88%)
Writing library                          : x264 core 155 r2901 7d0ff22
Encoding settings                        : cabac=1 / ref=5 / deblock=1:0:0 / analyse=0x3:0x113 / me=hex / subme=8 / psy=1 / psy_rd=1.00:0.00 / mixed_ref=1 / me_range=16 / chroma_me=1 / trellis=2 / 8x8dct=1 / cqm=0 / deadzone=21,11 / fast_pskip=1 / chroma_qp_offset=-2 / threads=22 / lookahead_threads=3 / sliced_threads=0 / nr=0 / decimate=1 / interlaced=0 / bluray_compat=0 / constrained_intra=0 / bframes=3 / b_pyramid=2 / b_adapt=1 / b_bias=0 / direct=3 / weightb=1 / open_gop=0 / weightp=2 / keyint=250 / keyint_min=23 / scenecut=40 / intra_refresh=0 / rc_lookahead=50 / rc=crf / mbtree=1 / crf=18.0 / qcomp=0.60 / qpmin=0 / qpmax=69 / qpstep=4 / ip_ratio=1.40 / aq=1:1.00
Language                                 : English
Default                                  : Yes
Forced                                   : No

Audio
ID                                       : 2
Format                                   : AC-3
Format/Info                              : Audio Coding 3
Format settings, Endianness              : Big
Codec ID                                 : A_AC3
Duration                                 : 39 min 32 s
Bit rate mode                            : Constant
Bit rate                                 : 384 kb/s
Channel(s)                               : 6 channels
Channel positions                        : Front: L C R, Side: L R, LFE
Sampling rate                            : 48.0 kHz
Frame rate                               : 31.250 FPS (1536 SPF)
Bit depth                                : 16 bits
Compression mode                         : Lossy
Stream size                              : 109 MiB (12%)
Language                                 : English
Service kind                             : Complete Main
Default                                  : Yes
Forced                                   : No

Text
ID                                       : 3
Format                                   : UTF-8
Codec ID                                 : S_TEXT/UTF8
Codec ID/Info                            : UTF-8 Plain Text
Duration                                 : 39 min 29 s
Bit rate                                 : 77 b/s
Count of elements                        : 560
Stream size                              : 22.3 KiB (0%)
Language                                 : English
Default                                  : No
Forced                                   : No




Cloak & Dagger S01E03 720p HDTV x264-LUCIDTV screenshots



TitleCloak & Dagger
Year2018
GenreAction / Adventure / Drama / Sci-Fi
Rating6.9 (3,410 votes)
PlotTandy Bowen and Tyrone Johnson, two teenagers from different backgrounds, acquire superpowers while forming a romantic relationship. They soon realize that their powers work better when they are together, but their feelings for each other make their already complicated world even more challenging. Written by priba_dj
Directorn/A
CastsOlivia Holt / Miles Mussenden / Aubrey Joseph / Gloria Reuben / Andrea Roth…
Runtime44 min
GenresAction / Adventure / Drama / Sci-Fi
Cloak & Dagger


Tags

Other releases

Same genre with Cloak & Dagger S01E03 720p HDTV x264-LUCIDTV

Hotel King 2014 ViE 720p HDTV AAC2.0 x264 Supergirl S02E04 720p HDTV X264-DIMENSIONThe Big Bang Theory 2007-2013 Complete Season One To Six BRRip 720pDark Matter S02 720p HDTV x264-SceneSecret Garden 720p HDTV x264-EbPThe Leftovers S02E08 720p HDTV x264-KILLERS

Comment for Cloak & Dagger S01E03 720p HDTV x264-LUCIDTV

Only members can create comment.