NetHD.org

Formula1 2018 Round10 Great Britain Race 720p WEBRip DD2.0 x264-NaN

Download Formula1 2018 Round10 Great Britain Race 720p WEBRip DD2.0 x264-NaN  
Small DescriptionThe 2018 British Grand Prix (formally known as the Formula 1 2018 Rolex British Grand Prix) is a Formula One motor race that is due to take place on July 8th, 2018 at Silverstone, in England. The race is the tenth round of the 2018 FIA Formula One World Championship. It is the seventy-first running of the British Grand Prix, and the sixty-ninth time the event had been included as a round of the Formula One World Championship since the inception of the series in 1950.
Basic Info
Uploaded byAnonymous at 2018-07-14 10:08:17
Action
Social
  • 2
Hot Meter
  • Views: 372
  • Hits: 19
  • Snatched: 9 x time(s)
  • Last Action: 2018-12-20 13:59:48
Peers0 Seeder | 0 Leecher


Formula1 2018 Round10 Great Britain Race 720p WEBRip DD2.0 x264-NaN  screenshots













Formula1 2018 Round10 Great Britain Race 720p WEBRip DD2.0 x264-NaN  screenshots


Format                                   : MPEG-TS
File size                                : 3.51 GiB
Duration                                 : 3 h 46 min
Overall bit rate mode                    : Variable
Overall bit rate                         : 2 216 kb/s
FileExtension_Invalid                    : ts m2t m2s m4t m4s tmf ts tp trp ty

Video
ID                                       : 69 (0x45)
Menu ID                                  : 1 (0x1)
Format                                   : AVC
Format/Info                              : Advanced Video Codec
Format profile                           : High@L3.1
Format settings                          : CABAC / 4 Ref Frames
Format settings, CABAC                   : Yes
Format settings, RefFrames               : 4 frames
Codec ID                                 : 27
Duration                                 : 3 h 46 min
Bit rate                                 : 1 977 kb/s
Width                                    : 1 280 pixels
Height                                   : 720 pixels
Display aspect ratio                     : 16:9
Frame rate                               : 25.000 FPS
Color space                              : YUV
Chroma subsampling                       : 4:2:0
Bit depth                                : 8 bits
Scan type                                : Progressive
Bits/(Pixel*Frame)                       : 0.086
Stream size                              : 3.13 GiB (89%)

Audio
ID                                       : 68 (0x44)
Menu ID                                  : 1 (0x1)
Format                                   : AC-3
Format/Info                              : Audio Coding 3
Codec ID                                 : 129
Duration                                 : 3 h 46 min
Bit rate mode                            : Constant
Bit rate                                 : 128 kb/s
Channel(s)                               : 2 channels
Channel positions                        : Front: L R
Sampling rate                            : 48.0 kHz
Frame rate                               : 31.250 FPS (1536 SPF)
Bit depth                                : 16 bits
Compression mode                         : Lossy
Delay relative to video                  : -56 ms
Stream size                              : 207 MiB (6%)
Service kind                             : Complete Main













Formula1 2018 Round10 Great Britain Race 720p WEBRip DD2.0 x264-NaN  screenshots


Formula1 2018 Round10 Great Britain Race 720p WEBRip DD2.0 x264-NaN  screenshotsFormula1 2018 Round10 Great Britain Race 720p WEBRip DD2.0 x264-NaN  screenshotsFormula1 2018 Round10 Great Britain Race 720p WEBRip DD2.0 x264-NaN  screenshots

TitleFormula 1
Year2018
GenreSport
Rating9 (30 votes)
Plotn/A
Directorn/A
CastsSebastian Vettel,Lewis Hamilton,Kimi Räikkönen,Valtteri Bottas,Daniel Ricciardo…
Runtimen/A
GenresSport
Formula 1


FIFA World Cup 2018 Group E Brazil vs Costa Rica 720p HDTV x264-VERUMFIFA World Cup 2018 Group D Argentina vs Croatia 720p HDTV AC3 5.1 x264-KYR AFC Futsal Championship Qf Japan vs Vietnam 1080p HDTV AAC 2 0 H.264-NTVWWE Survivor Series 2015 PPV PDTV x264-EbiFormula1 2018 Round06 Monaco Race 720p FOXSPORTS AAC2.0 x264-NaNFormula1 2018 Round04 Azerbaijan Race 720p FOXSPORTS AAC2.0 x264-NaN

Only members can create comment.