The Babymakers 2012 720p BluRay DD5.1 x264-SFT

Download The Babymakers 2012 720p BluRay DD5.1 x264-SFT 
Small DescriptionTinh trùng gặp nạn | internal HDBits | Vie sub
Basic Info
Uploaded byAnonymous at 2018-09-16 16:06:39
Action
Social
  • 2
Hot Meter
  • Views: 205
  • Hits: 24
  • Snatched: 11 x time(s)
  • Last Action: 2018-11-17 14:11:58
Peers2 Seeder | 1 Leecher
Source: The Babymakers 2012 1080p Blu-ray AVC TrueHD 5.1

Source - Encode - Scene:

More Screens:
The Babymakers 2012 720p BluRay DD5.1 x264-SFT screenshots The Babymakers 2012 720p BluRay DD5.1 x264-SFT screenshots The Babymakers 2012 720p BluRay DD5.1 x264-SFT screenshots The Babymakers 2012 720p BluRay DD5.1 x264-SFT screenshots The Babymakers 2012 720p BluRay DD5.1 x264-SFT screenshots The Babymakers 2012 720p BluRay DD5.1 x264-SFT screenshots The Babymakers 2012 720p BluRay DD5.1 x264-SFT screenshots The Babymakers 2012 720p BluRay DD5.1 x264-SFT screenshots The Babymakers 2012 720p BluRay DD5.1 x264-SFT screenshots


Quote
Format                                   : Matroska
Format version                           : Version 2
File size                                : 4.11 GiB
Duration                                 : 1 h 35 min
Overall bit rate                         : 6 153 kb/s
Encoded date                             : UTC 2013-02-11 16:38:37
Writing application                      : mkvmerge v5.8.0 ('No Sleep / Pillow') built on Sep  2 2012 15:37:04
Writing library                          : libebml v1.2.3 + libmatroska v1.3.0

Video
ID                                       : 1
Format                                   : AVC
Format/Info                              : Advanced Video Codec
Format profile                           : High@L4.1
Format settings, CABAC                   : Yes
Format settings, ReFrames                : 12 frames
Codec ID                                 : V_MPEG4/ISO/AVC
Duration                                 : 1 h 35 min
Bit rate                                 : 5 500 kb/s
Width                                    : 1 280 pixels
Height                                   : 534 pixels
Display aspect ratio                     : 2.40:1
Frame rate mode                          : Constant
Frame rate                               : 23.976 (24000/1001) FPS
Color space                              : YUV
Chroma subsampling                       : 4:2:0
Bit depth                                : 8 bits
Scan type                                : Progressive
Bits/(Pixel*Frame)                       : 0.336
Stream size                              : 3.60 GiB (88%)
Writing library                          : x264 core 129 r2230 1cffe9f
Encoding settings                        : cabac=1 / ref=12 / deblock=1:-3:-3 / analyse=0x3:0x133 / me=umh / subme=10 / psy=1 / psy_rd=1.20:0.00 / mixed_ref=1 / me_range=24 / chroma_me=1 / trellis=2 / 8x8dct=1 / cqm=0 / deadzone=21,11 / fast_pskip=1 / chroma_qp_offset=-2 / threads=12 / lookahead_threads=2 / sliced_threads=0 / nr=0 / decimate=1 / interlaced=0 / bluray_compat=0 / constrained_intra=0 / bframes=8 / b_pyramid=2 / b_adapt=2 / b_bias=0 / direct=3 / weightb=1 / open_gop=0 / weightp=2 / keyint=250 / keyint_min=23 / scenecut=40 / intra_refresh=0 / rc_lookahead=60 / rc=2pass / mbtree=1 / bitrate=5500 / ratetol=1.0 / qcomp=0.60 / qpmin=0 / qpmax=69 / qpstep=4 / cplxblur=20.0 / qblur=0.5 / ip_ratio=1.40 / aq=1:0.80
Language                                 : English
Default                                  : Yes
Forced                                   : No

Audio
ID                                       : 2
Format                                   : AC-3
Format/Info                              : Audio Coding 3
Mode extension                           : CM (complete main)
Format settings, Endianness              : Big
Codec ID                                 : A_AC3
Duration                                 : 1 h 35 min
Bit rate mode                            : Constant
Bit rate                                 : 640 kb/s
Channel(s)                               : 6 channels
Channel positions                        : Front: L C R, Side: L R, LFE
Sampling rate                            : 48.0 kHz
Frame rate                               : 31.250 FPS (1536 spf)
Bit depth                                : 16 bits
Compression mode                         : Lossy
Stream size                              : 438 MiB (10%)
Language                                 : English
Default                                  : Yes
Forced                                   : No

Text #1
ID                                       : 3
Format                                   : PGS
Muxing mode                              : zlib
Codec ID                                 : S_HDMV/PGS
Codec ID/Info                            : Picture based subtitle format used on BDs/HD-DVDs
Language                                 : English
Default                                  : No
Forced                                   : No

Text #2
ID                                       : 4
Format                                   : PGS
Muxing mode                              : zlib
Codec ID                                 : S_HDMV/PGS
Codec ID/Info                            : Picture based subtitle format used on BDs/HD-DVDs
Language                                 : Spanish
Default                                  : No
Forced                                   : No

Menu
00:00:00.000                             : :1
00:08:22.752                             : :2
00:15:57.165                             : :3
00:21:01.719                             : :4
00:26:29.671                             : :5
00:34:51.214                             : :6
00:42:06.065                             : :7
00:48:38.499                             : :8
00:57:48.757                             : :9
01:08:47.832                             : :10
01:18:50.392                             : :11
01:30:26.254                             : :12
TitleThe Babymakers
Year2012
GenreComedy
Rating5 (8,013 votes)
Plotn/A
DirectorJay Chandrasekhar
CastsPaul Schneider,Olivia Munn,Michael Yurchak,Wood Harris,Kevin Heffernan…
Runtime95 min
GenresComedy
The Babymakers


Tags

Other releases

Same genre with The Babymakers 2012 720p BluRay DD5.1 x264-SFT

Withnail and I (1987) 1080p BrRip x264 - YIFYTheir Finest 2016 mHD Bluray DD5.1 x264-TRiMToo Beautiful To Lie 2004 mHD BluRay AAC x264-TRiMPuerto Ricans in Paris 2015 1080p BluRay DTS x264-EPiCFun Mom Dinner 2017 1080p BluRay DTS x264-ROVERSKindergarten Cop 2 2016 720p BluRay DTS x264-OmertaHD

Comment for The Babymakers 2012 720p BluRay DD5.1 x264-SFT

Only members can create comment.