The Pursuit of D.B. Cooper 1981 1080p WEB-DL DD5.1 H.264–KORSAR

Download The Pursuit of D.B. Cooper 1981 1080p WEB-DL DD5.1 H.264–KORSAR  
Small DescriptionA speculation on the fate of the famous hijacker who parachuted with his ransom and disappeared in the mountains, has Cooper following a meticulous plan to disappear into anonymity despite the best efforts of a dogged cop. Written by Keith Loh
Basic Info
Uploaded byAnonymous at 2018-09-16 16:36:28
Action
Social
  • 1
Hot Meter
  • Views: 97
  • Hits: 3
  • Snatched: 0 x time(s)
  • Last Action: 2018-09-22 16:10:07
Peers0 Seeder | 0 Leecher
The Pursuit of D.B. Cooper 1981 1080p WEB-DL DD5.1 H.264–KORSAR  screenshots













The Pursuit of D.B. Cooper 1981 1080p WEB-DL DD5.1 H.264–KORSAR  screenshots


General
Unique ID                                : 182855711279360554319038169291533611762 (0x8990BA9ECB7108FEAD542CBF130C72F2)
Complete name                            : F:\MOVIE\Преследование.Д.Б.Купера.1981.WEB-DL.1080p.mkv
Format                                   : Matroska
Format version                           : Version 2
File size                                : 10.1 GiB
Duration                                 : 1 h 40 min
Overall bit rate mode                    : Variable
Overall bit rate                         : 14.4 Mb/s
Encoded date                             : UTC 2018-09-14 17:26:07
Writing application                      : mkvmerge v5.8.0 ('No Sleep / Pillow') built on Sep  2 2012 15:37:04
Writing library                          : libebml v1.2.3 + libmatroska v1.3.0

Video
ID                                       : 1
Format                                   : AVC
Format/Info                              : Advanced Video Codec
Format profile                           : High@L4
Format settings                          : CABAC / 4 Ref Frames
Format settings, CABAC                   : Yes
Format settings, RefFrames               : 4 frames
Codec ID                                 : V_MPEG4/ISO/AVC
Duration                                 : 1 h 40 min
Bit rate mode                            : Variable
Bit rate                                 : 13.4 Mb/s
Maximum bit rate                         : 15.0 Mb/s
Width                                    : 1 920 pixels
Height                                   : 1 080 pixels
Display aspect ratio                     : 16:9
Frame rate mode                          : Constant
Frame rate                               : 23.976 (24000/1001) FPS
Color space                              : YUV
Chroma subsampling                       : 4:2:0
Bit depth                                : 8 bits
Scan type                                : Progressive
Bits/(Pixel*Frame)                       : 0.270
Stream size                              : 9.42 GiB (93%)
Language                                 : English
Default                                  : Yes
Forced                                   : No
Color range                              : Limited
Color primaries                          : BT.709
Transfer characteristics                 : BT.709
Matrix coefficients                      : BT.709

Audio #1
ID                                       : 2
Format                                   : AC-3
Format/Info                              : Audio Coding 3
Codec ID                                 : A_AC3
Duration                                 : 1 h 40 min
Bit rate mode                            : Constant
Bit rate                                 : 448 kb/s
Channel(s)                               : 6 channels
Channel positions                        : Front: L C R, Side: L R, LFE
Sampling rate                            : 48.0 kHz
Frame rate                               : 31.250 FPS (1536 SPF)
Bit depth                                : 16 bits
Compression mode                         : Lossy
Stream size                              : 322 MiB (3%)
Title                                    : MVO
Language                                 : Russian
Service kind                             : Complete Main
Default                                  : Yes
Forced                                   : No

Audio #2
ID                                       : 3
Format                                   : E-AC-3
Format/Info                              : Enhanced Audio Coding 3
Codec ID                                 : A_EAC3
Duration                                 : 1 h 40 min
Bit rate mode                            : Constant
Bit rate                                 : 224 kb/s
Channel(s)                               : 2 channels
Channel positions                        : Front: L R
Sampling rate                            : 48.0 kHz
Frame rate                               : 187.500 FPS (256 SPF)
Compression mode                         : Lossy
Delay relative to video                  : 9 ms
Stream size                              : 161 MiB (2%)
Title                                    : Original
Language                                 : English
Service kind                             : Complete Main
Default                                  : No
Forced                                   : No

Text
ID                                       : 4
Format                                   : UTF-8
Codec ID                                 : S_TEXT/UTF8
Codec ID/Info                            : UTF-8 Plain Text
Language                                 : English
Default                                  : No
Forced                                   : No













The Pursuit of D.B. Cooper 1981 1080p WEB-DL DD5.1 H.264–KORSAR  screenshots


The Pursuit of D.B. Cooper 1981 1080p WEB-DL DD5.1 H.264–KORSAR  screenshotsThe Pursuit of D.B. Cooper 1981 1080p WEB-DL DD5.1 H.264–KORSAR  screenshotsThe Pursuit of D.B. Cooper 1981 1080p WEB-DL DD5.1 H.264–KORSAR  screenshots
The Pursuit of D.B. Cooper 1981 1080p WEB-DL DD5.1 H.264–KORSAR  screenshotsThe Pursuit of D.B. Cooper 1981 1080p WEB-DL DD5.1 H.264–KORSAR  screenshotsThe Pursuit of D.B. Cooper 1981 1080p WEB-DL DD5.1 H.264–KORSAR  screenshots
The Pursuit of D.B. Cooper 1981 1080p WEB-DL DD5.1 H.264–KORSAR  screenshotsThe Pursuit of D.B. Cooper 1981 1080p WEB-DL DD5.1 H.264–KORSAR  screenshotsThe Pursuit of D.B. Cooper 1981 1080p WEB-DL DD5.1 H.264–KORSAR  screenshots

TitleThe Pursuit of D.B. Cooper
Year1981
Genre
Rating5.7 (905 votes)
PlotA speculation on the fate of the famous hijacker who parachuted with his ransom and disappeared in the mountains, has Cooper following a meticulous plan to disappear into anonymity despite the best efforts of a dogged cop. Written by Keith Loh
DirectorRoger Spottiswoode,Buzz Kulik
CastsRobert Duvall,Treat Williams,Kathryn Harrold,Ed Flanders,Paul Gleason…
Runtime100 min
Genres
The Pursuit of D.B. Cooper


Tags

Other releases

Same genre with The Pursuit of D.B. Cooper 1981 1080p WEB-DL DD5.1 H.264–KORSAR

The Life Aquatic with Steve Zissou 2004 1080p BluRay DD5.1 x264-EbPThe Hunger Games: Mockingjay - Part 2 2015 ViE 1080p Blu-ray AVC Atmos TrueHD 7.1-NetBDThe Spiderwick Chronicles 2008 1080p BluRay DTS x264-ESiRLOST S02 BluRay 1080p AVC DTS-HDMA 5.1-REMUXJourney to the West: Demon Chapter 2017 4K WEB-DL AAC x.264-XiJieSwiss Army Man 2016 ViE mHD BluRay DD5.1 x264-TRiM

Comment for The Pursuit of D.B. Cooper 1981 1080p WEB-DL DD5.1 H.264–KORSAR

Only members can create comment.