NetHD.org

The Lord of the Rings Trilogy 2001-2003 Extended Editions 1080p Blu-ray AVC DTS-HD MA 6.1-TTG

Download The Lord of the Rings Trilogy 2001-2003 Extended Editions 1080p Blu-ray AVC DTS-HD MA 6.1-TTG 
Small DescriptionAn ancient Ring thought lost for centuries has been found, and through a strange twist in fate has been given to a small Hobbit named Frodo. When Gandalf discovers the Ring is in fact the One Ring of the Dark Lord Sauron, Frodo must make an epic quest to the Cracks of Doom in order to destroy it! However he does not go alone. He is joined by Gandalf, Legolas the elf, Gimli the Dwarf, Aragorn, Boromir and his three Hobbit friends Merry, Pippin and Samwise. Through mountains, snow, darkness,…
Basic Info
Uploaded byAnonymous at 2019-01-14 10:44:04
Action
Social
  • 4
Hot Meter
  • Views: 300
  • Hits: 38
  • Snatched: 10 x time(s)
  • Last Action: 2019-03-26 10:00:59
Peers5 Seeder | 0 Leecher


The Lord of the Rings Trilogy 2001-2003 Extended Editions 1080p Blu-ray AVC DTS-HD MA 6.1-TTG screenshots













The Lord of the Rings Trilogy 2001-2003 Extended Editions 1080p Blu-ray AVC DTS-HD MA 6.1-TTG screenshots




The Lord of the Rings: The Fellowship of the Ring Part 1 2001 Extended Editions 1080p Blu-ray AVC DTS-HD MA 6.1-TTG



The Lord of the Rings Trilogy 2001-2003 Extended Editions 1080p Blu-ray AVC DTS-HD MA 6.1-TTG screenshots



DISC INFO:

Disc Title:     FELLOWSHIP_OF_THE_RING_EXT_PT1
Disc Size:      31,743,771,036 bytes
Protection:     AACS
BD-Java:        Yes
BDInfo:         0.5.8.7 (compatible layout created by DVDFab 10.2.1.7)

PLAYLIST REPORT:

Name:                   00100.MPLS  
Length:                 1:45:43.420 (h:m:s.ms)
Size:                   31,359,614,976 bytes
Total Bitrate:          39.55 Mbps

VIDEO:

Codec                   Bitrate             Description    
-----                   -------             -----------    
MPEG-4 AVC Video        29857 kbps          1080p / 23.976 fps / 16:9 / High Profile 4.1 /

AUDIO:

Codec                           Language        Bitrate         Description    
-----                           --------        -------         -----------    
DTS-HD Master Audio             English         4719 kbps       6.1 / 48 kHz / 4719 kbps / 24-bit (DTS Core: 6.1-ES / 48 kHz / 1509 kbps / 24-bit)
Dolby Digital EX Audio          Polish          640 kbps        5.1-EX / 48 kHz / 640 kbps
Dolby Digital EX Audio          Thai            640 kbps        5.1-EX / 48 kHz / 640 kbps
Dolby Digital Audio             English         192 kbps        2.0 / 48 kHz / 192 kbps / Dolby Surround
Dolby Digital Audio             English         192 kbps        2.0 / 48 kHz / 192 kbps / Dolby Surround
Dolby Digital Audio             English         192 kbps        2.0 / 48 kHz / 192 kbps / Dolby Surround
Dolby Digital Audio             English         192 kbps        2.0 / 48 kHz / 192 kbps / Dolby Surround

SUBTITLES:

Codec                           Language        Bitrate         Description    
-----                           --------        -------         -----------    
Presentation Graphics           English         25.799 kbps                    
Presentation Graphics           Chinese         21.348 kbps                    
Presentation Graphics           Korean          20.034 kbps                    
Presentation Graphics           Chinese         20.3 kbps                      
Presentation Graphics           Czech           21.47 kbps                      
Presentation Graphics           Hebrew          17.533 kbps                    
Presentation Graphics           Polish          19.869 kbps                    
Presentation Graphics           Romanian        23.939 kbps                    
Presentation Graphics           Thai            22.345 kbps                    
Presentation Graphics           English         4.395 kbps                      
Presentation Graphics           Chinese         66.061 kbps                    
Presentation Graphics           Korean          53.578 kbps                    
Presentation Graphics           English         2.937 kbps                      
Presentation Graphics           Chinese         46.588 kbps                    
Presentation Graphics           Korean          44.002 kbps                    
Presentation Graphics           English         5.146 kbps                      
Presentation Graphics           Chinese         60.467 kbps                    
Presentation Graphics           Korean          53.854 kbps                    
Presentation Graphics           English         7.033 kbps                      
Presentation Graphics           Chinese         67.846 kbps                    
Presentation Graphics           Korean          59.17 kbps                      
Presentation Graphics           English         0.396 kbps                      
Presentation Graphics           Polish          0.341 kbps                      
Presentation Graphics           Thai            0.525 kbps                      

FILES:

Name            Time In         Length          Size            Total Bitrate  
----            -------         ------          ----            -------------  
00000.M2TS      0:00:00.000     1:45:43.420     31,359,614,976  39,549 kbps  





The Lord of the Rings Trilogy 2001-2003 Extended Editions 1080p Blu-ray AVC DTS-HD MA 6.1-TTG screenshotsThe Lord of the Rings Trilogy 2001-2003 Extended Editions 1080p Blu-ray AVC DTS-HD MA 6.1-TTG screenshotsThe Lord of the Rings Trilogy 2001-2003 Extended Editions 1080p Blu-ray AVC DTS-HD MA 6.1-TTG screenshots
The Lord of the Rings Trilogy 2001-2003 Extended Editions 1080p Blu-ray AVC DTS-HD MA 6.1-TTG screenshotsThe Lord of the Rings Trilogy 2001-2003 Extended Editions 1080p Blu-ray AVC DTS-HD MA 6.1-TTG screenshotsThe Lord of the Rings Trilogy 2001-2003 Extended Editions 1080p Blu-ray AVC DTS-HD MA 6.1-TTG screenshots













The Lord of the Rings: The Fellowship of the Ring Part 2 2001 Extended Editions 1080p Blu-ray AVC DTS-HD MA 6.1-TTG



The Lord of the Rings Trilogy 2001-2003 Extended Editions 1080p Blu-ray AVC DTS-HD MA 6.1-TTG screenshots



DISC INFO:

Disc Title:     FELLOWSHIP_OF_THE_RING_EXT_PT2
Disc Size:      37,060,208,634 bytes
Protection:     AACS
BD-Java:        Yes
BDInfo:         0.5.8.7 (compatible layout created by DVDFab 10.2.1.7)

PLAYLIST REPORT:

Name:                   00100.MPLS  
Length:                 2:02:34.347 (h:m:s.ms)
Size:                   36,202,506,240 bytes
Total Bitrate:          39.38 Mbps

VIDEO:

Codec                   Bitrate             Description    
-----                   -------             -----------    
MPEG-4 AVC Video        29855 kbps          1080p / 23.976 fps / 16:9 / High Profile 4.1 /

AUDIO:

Codec                           Language        Bitrate         Description    
-----                           --------        -------         -----------    
DTS-HD Master Audio             English         4762 kbps       6.1 / 48 kHz / 4762 kbps / 24-bit (DTS Core: 6.1-ES / 48 kHz / 1509 kbps / 24-bit)
Dolby Digital EX Audio          Polish          640 kbps        5.1-EX / 48 kHz / 640 kbps
Dolby Digital EX Audio          Thai            640 kbps        5.1-EX / 48 kHz / 640 kbps
Dolby Digital Audio             English         192 kbps        2.0 / 48 kHz / 192 kbps / Dolby Surround
Dolby Digital Audio             English         192 kbps        2.0 / 48 kHz / 192 kbps / Dolby Surround
Dolby Digital Audio             English         192 kbps        2.0 / 48 kHz / 192 kbps / Dolby Surround
Dolby Digital Audio             English         192 kbps        2.0 / 48 kHz / 192 kbps / Dolby Surround

SUBTITLES:

Codec                           Language        Bitrate         Description    
-----                           --------        -------         -----------    
Presentation Graphics           English         13.6 kbps                      
Presentation Graphics           Chinese         12.064 kbps                    
Presentation Graphics           Korean          10.517 kbps                    
Presentation Graphics           Chinese         10.985 kbps                    
Presentation Graphics           Czech           11.829 kbps                    
Presentation Graphics           Hebrew          9.527 kbps                      
Presentation Graphics           Polish          11.539 kbps                    
Presentation Graphics           Romanian        13.269 kbps                    
Presentation Graphics           Thai            12.789 kbps                    
Presentation Graphics           English         3.033 kbps                      
Presentation Graphics           Chinese         40.734 kbps                    
Presentation Graphics           Korean          40.109 kbps                    
Presentation Graphics           English         2.666 kbps                      
Presentation Graphics           Chinese         38.192 kbps                    
Presentation Graphics           Korean          36.367 kbps                    
Presentation Graphics           English         4.045 kbps                      
Presentation Graphics           Chinese         51.362 kbps                    
Presentation Graphics           Korean          43.754 kbps                    
Presentation Graphics           English         4.804 kbps                      
Presentation Graphics           Chinese         55.322 kbps                    
Presentation Graphics           Korean          45.983 kbps                    
Presentation Graphics           English         0.319 kbps                      
Presentation Graphics           Polish          0.376 kbps                      
Presentation Graphics           Thai            0.41 kbps                      

FILES:

Name            Time In         Length          Size            Total Bitrate  
----            -------         ------          ----            -------------  
00005.M2TS      0:00:00.000     2:02:34.347     36,202,506,240  39,380 kbps  





The Lord of the Rings Trilogy 2001-2003 Extended Editions 1080p Blu-ray AVC DTS-HD MA 6.1-TTG screenshotsThe Lord of the Rings Trilogy 2001-2003 Extended Editions 1080p Blu-ray AVC DTS-HD MA 6.1-TTG screenshotsThe Lord of the Rings Trilogy 2001-2003 Extended Editions 1080p Blu-ray AVC DTS-HD MA 6.1-TTG screenshots
The Lord of the Rings Trilogy 2001-2003 Extended Editions 1080p Blu-ray AVC DTS-HD MA 6.1-TTG screenshotsThe Lord of the Rings Trilogy 2001-2003 Extended Editions 1080p Blu-ray AVC DTS-HD MA 6.1-TTG screenshotsThe Lord of the Rings Trilogy 2001-2003 Extended Editions 1080p Blu-ray AVC DTS-HD MA 6.1-TTG screenshots









The Lord of the Rings: The Two Towers Part 1 2002 Extended Editions 1080p Blu-ray AVC DTS-HD MA 6.1-TTG



The Lord of the Rings Trilogy 2001-2003 Extended Editions 1080p Blu-ray AVC DTS-HD MA 6.1-TTG screenshots



DISC INFO:

Disc Title:     THE_TWO_TOWERS_EXT_PT1
Disc Size:      31,834,338,162 bytes
Protection:     AACS
BD-Java:        Yes
BDInfo:         0.5.8.7 (compatible layout created by DVDFab 10.2.1.7)

PLAYLIST REPORT:

Name:                   00100.MPLS  
Length:                 1:46:39.184 (h:m:s.ms)
Size:                   31,504,674,816 bytes
Total Bitrate:          39.39 Mbps

VIDEO:

Codec                   Bitrate             Description    
-----                   -------             -----------    
MPEG-4 AVC Video        29895 kbps          1080p / 23.976 fps / 16:9 / High Profile 4.1 /

AUDIO:

Codec                           Language        Bitrate         Description    
-----                           --------        -------         -----------    
DTS-HD Master Audio             English         4430 kbps       6.1 / 48 kHz / 4430 kbps / 24-bit (DTS Core: 6.1-ES / 48 kHz / 1509 kbps / 24-bit)
Dolby Digital EX Audio          Polish          640 kbps        5.1-EX / 48 kHz / 640 kbps
Dolby Digital EX Audio          Thai            640 kbps        5.1-EX / 48 kHz / 640 kbps
Dolby Digital Audio             English         192 kbps        2.0 / 48 kHz / 192 kbps / Dolby Surround
Dolby Digital Audio             English         192 kbps        2.0 / 48 kHz / 192 kbps / Dolby Surround
Dolby Digital Audio             English         192 kbps        2.0 / 48 kHz / 192 kbps / Dolby Surround
Dolby Digital Audio             English         192 kbps        2.0 / 48 kHz / 192 kbps / Dolby Surround

SUBTITLES:

Codec                           Language        Bitrate         Description    
-----                           --------        -------         -----------    
Presentation Graphics           English         22.464 kbps                    
Presentation Graphics           Chinese         18.511 kbps                    
Presentation Graphics           Korean          16.822 kbps                    
Presentation Graphics           Chinese         17.086 kbps                    
Presentation Graphics           Czech           18.656 kbps                    
Presentation Graphics           Hebrew          15.19 kbps                      
Presentation Graphics           Polish          18.347 kbps                    
Presentation Graphics           Romanian        21.461 kbps                    
Presentation Graphics           Thai            19.138 kbps                    
Presentation Graphics           English         6.48 kbps                      
Presentation Graphics           Chinese         75.979 kbps                    
Presentation Graphics           Korean          68.946 kbps                    
Presentation Graphics           English         7.459 kbps                      
Presentation Graphics           Chinese         68.796 kbps                    
Presentation Graphics           Korean          64.851 kbps                    
Presentation Graphics           English         4.628 kbps                      
Presentation Graphics           Chinese         66.971 kbps                    
Presentation Graphics           Korean          56.624 kbps                    
Presentation Graphics           English         6.723 kbps                      
Presentation Graphics           Chinese         86.332 kbps                    
Presentation Graphics           Korean          72.707 kbps                    
Presentation Graphics           English         0.05 kbps                      
Presentation Graphics           Polish          0.036 kbps                      
Presentation Graphics           Thai            0.059 kbps                      

FILES:

Name            Time In         Length          Size            Total Bitrate  
----            -------         ------          ----            -------------  
00004.M2TS      0:00:00.000     1:46:39.184     31,504,674,816  39,385 kbps  





The Lord of the Rings Trilogy 2001-2003 Extended Editions 1080p Blu-ray AVC DTS-HD MA 6.1-TTG screenshotsThe Lord of the Rings Trilogy 2001-2003 Extended Editions 1080p Blu-ray AVC DTS-HD MA 6.1-TTG screenshotsThe Lord of the Rings Trilogy 2001-2003 Extended Editions 1080p Blu-ray AVC DTS-HD MA 6.1-TTG screenshots
The Lord of the Rings Trilogy 2001-2003 Extended Editions 1080p Blu-ray AVC DTS-HD MA 6.1-TTG screenshotsThe Lord of the Rings Trilogy 2001-2003 Extended Editions 1080p Blu-ray AVC DTS-HD MA 6.1-TTG screenshotsThe Lord of the Rings Trilogy 2001-2003 Extended Editions 1080p Blu-ray AVC DTS-HD MA 6.1-TTG screenshots












The Lord of the Rings: The Two Towers Part 2 2002 Extended Editions 1080p Blu-ray AVC DTS-HD MA 6.1-TTG



The Lord of the Rings Trilogy 2001-2003 Extended Editions 1080p Blu-ray AVC DTS-HD MA 6.1-TTG screenshots



DISC INFO:

Disc Title:     THE_TWO_TOWERS_EXT_PT2
Disc Size:      38,400,612,850 bytes
Protection:     AACS
BD-Java:        Yes
BDInfo:         0.5.8.7 (compatible layout created by DVDFab 10.2.1.7)

PLAYLIST REPORT:

Name:                   00100.MPLS  
Length:                 2:08:50.931 (h:m:s.ms)
Size:                   38,003,355,648 bytes
Total Bitrate:          39.33 Mbps

VIDEO:

Codec                   Bitrate             Description    
-----                   -------             -----------    
MPEG-4 AVC Video        29872 kbps          1080p / 23.976 fps / 16:9 / High Profile 4.1 /

AUDIO:

Codec                           Language        Bitrate         Description    
-----                           --------        -------         -----------    
DTS-HD Master Audio             English         4519 kbps       6.1 / 48 kHz / 4519 kbps / 24-bit (DTS Core: 6.1-ES / 48 kHz / 1509 kbps / 24-bit)
Dolby Digital EX Audio          Polish          640 kbps        5.1-EX / 48 kHz / 640 kbps
Dolby Digital EX Audio          Thai            640 kbps        5.1-EX / 48 kHz / 640 kbps
Dolby Digital Audio             English         192 kbps        2.0 / 48 kHz / 192 kbps / Dolby Surround
Dolby Digital Audio             English         192 kbps        2.0 / 48 kHz / 192 kbps / Dolby Surround
Dolby Digital Audio             English         192 kbps        2.0 / 48 kHz / 192 kbps / Dolby Surround
Dolby Digital Audio             English         192 kbps        2.0 / 48 kHz / 192 kbps / Dolby Surround

SUBTITLES:

Codec                           Language        Bitrate         Description    
-----                           --------        -------         -----------    
Presentation Graphics           English         17.825 kbps                    
Presentation Graphics           Chinese         14.4 kbps                      
Presentation Graphics           Korean          13.27 kbps                      
Presentation Graphics           Chinese         13.634 kbps                    
Presentation Graphics           Czech           14.483 kbps                    
Presentation Graphics           Hebrew          11.806 kbps                    
Presentation Graphics           Polish          14.248 kbps                    
Presentation Graphics           Romanian        17.015 kbps                    
Presentation Graphics           Thai            14.874 kbps                    
Presentation Graphics           English         5.277 kbps                      
Presentation Graphics           Chinese         64.407 kbps                    
Presentation Graphics           Korean          58.667 kbps                    
Presentation Graphics           English         6.339 kbps                      
Presentation Graphics           Chinese         58.456 kbps                    
Presentation Graphics           Korean          57.03 kbps                      
Presentation Graphics           English         4.568 kbps                      
Presentation Graphics           Chinese         61.276 kbps                    
Presentation Graphics           Korean          53.044 kbps                    
Presentation Graphics           English         6.225 kbps                      
Presentation Graphics           Chinese         71.623 kbps                    
Presentation Graphics           Korean          56.145 kbps                    
Presentation Graphics           English         0.774 kbps                      
Presentation Graphics           Polish          0.741 kbps                      
Presentation Graphics           Thai            0.831 kbps                      

FILES:

Name            Time In         Length          Size            Total Bitrate  
----            -------         ------          ----            -------------  
00000.M2TS      0:00:00.000     2:08:50.931     38,003,355,648  39,326 kbps    





The Lord of the Rings Trilogy 2001-2003 Extended Editions 1080p Blu-ray AVC DTS-HD MA 6.1-TTG screenshotsThe Lord of the Rings Trilogy 2001-2003 Extended Editions 1080p Blu-ray AVC DTS-HD MA 6.1-TTG screenshotsThe Lord of the Rings Trilogy 2001-2003 Extended Editions 1080p Blu-ray AVC DTS-HD MA 6.1-TTG screenshots
The Lord of the Rings Trilogy 2001-2003 Extended Editions 1080p Blu-ray AVC DTS-HD MA 6.1-TTG screenshotsThe Lord of the Rings Trilogy 2001-2003 Extended Editions 1080p Blu-ray AVC DTS-HD MA 6.1-TTG screenshotsThe Lord of the Rings Trilogy 2001-2003 Extended Editions 1080p Blu-ray AVC DTS-HD MA 6.1-TTG screenshots










The Lord of the Rings: The Return of the King Part 1 2003 Extended Editions 1080p Blu-ray AVC DTS-HD MA 6.1-TTG



The Lord of the Rings Trilogy 2001-2003 Extended Editions 1080p Blu-ray AVC DTS-HD MA 6.1-TTG screenshots



DISC INFO:

Disc Title:     THE_RETURN_OF_THE_KING_EXT_PT1
Disc Size:      38,695,608,021 bytes
Protection:     AACS
BD-Java:        Yes
BDInfo:         0.5.8.7 (compatible layout created by DVDFab 10.2.1.7)

PLAYLIST REPORT:

Name:                   00100.MPLS  
Length:                 2:07:40.235 (h:m:s.ms)
Size:                   38,092,142,592 bytes
Total Bitrate:          39.78 Mbps

VIDEO:

Codec                   Bitrate             Description    
-----                   -------             -----------    
MPEG-4 AVC Video        30236 kbps          1080p / 23.976 fps / 16:9 / High Profile 4.1 /

AUDIO:

Codec                           Language        Bitrate         Description    
-----                           --------        -------         -----------    
DTS-HD Master Audio             English         4475 kbps       6.1 / 48 kHz / 4475 kbps / 24-bit (DTS Core: 6.1-ES / 48 kHz / 1509 kbps / 24-bit)
Dolby Digital EX Audio          Polish          640 kbps        5.1-EX / 48 kHz / 640 kbps
Dolby Digital EX Audio          Thai            640 kbps        5.1-EX / 48 kHz / 640 kbps
Dolby Digital Audio             English         192 kbps        2.0 / 48 kHz / 192 kbps / Dolby Surround
Dolby Digital Audio             English         192 kbps        2.0 / 48 kHz / 192 kbps / Dolby Surround
Dolby Digital Audio             English         192 kbps        2.0 / 48 kHz / 192 kbps / Dolby Surround
Dolby Digital Audio             English         192 kbps        2.0 / 48 kHz / 192 kbps / Dolby Surround

SUBTITLES:

Codec                           Language        Bitrate         Description    
-----                           --------        -------         -----------    
Presentation Graphics           English         21.88 kbps                      
Presentation Graphics           Chinese         17.75 kbps                      
Presentation Graphics           Korean          15.836 kbps                    
Presentation Graphics           Chinese         17.915 kbps                    
Presentation Graphics           Czech           17.695 kbps                    
Presentation Graphics           Polish          17.744 kbps                    
Presentation Graphics           Romanian        19.799 kbps                    
Presentation Graphics           Thai            16.984 kbps                    
Presentation Graphics           English         5.429 kbps                      
Presentation Graphics           Chinese         74.868 kbps                    
Presentation Graphics           Korean          63.485 kbps                    
Presentation Graphics           English         9.446 kbps                      
Presentation Graphics           Chinese         75.795 kbps                    
Presentation Graphics           Korean          63.229 kbps                    
Presentation Graphics           English         8.623 kbps                      
Presentation Graphics           Chinese         73.633 kbps                    
Presentation Graphics           Korean          59.336 kbps                    
Presentation Graphics           English         9.945 kbps                      
Presentation Graphics           Chinese         81.787 kbps                    
Presentation Graphics           Korean          71.975 kbps                    
Presentation Graphics           English         0.028 kbps                      
Presentation Graphics           Polish          0.036 kbps                      
Presentation Graphics           Thai            0.042 kbps                      

FILES:

Name            Time In         Length          Size            Total Bitrate  
----            -------         ------          ----            -------------  
00000.M2TS      0:00:00.000     2:07:40.235     38,092,142,592  39,781 kbps    





The Lord of the Rings Trilogy 2001-2003 Extended Editions 1080p Blu-ray AVC DTS-HD MA 6.1-TTG screenshotsThe Lord of the Rings Trilogy 2001-2003 Extended Editions 1080p Blu-ray AVC DTS-HD MA 6.1-TTG screenshotsThe Lord of the Rings Trilogy 2001-2003 Extended Editions 1080p Blu-ray AVC DTS-HD MA 6.1-TTG screenshots
The Lord of the Rings Trilogy 2001-2003 Extended Editions 1080p Blu-ray AVC DTS-HD MA 6.1-TTG screenshotsThe Lord of the Rings Trilogy 2001-2003 Extended Editions 1080p Blu-ray AVC DTS-HD MA 6.1-TTG screenshotsThe Lord of the Rings Trilogy 2001-2003 Extended Editions 1080p Blu-ray AVC DTS-HD MA 6.1-TTG screenshots












The Lord of the Rings: The Return of the King Part 2 2003 Extended Editions 1080p Blu-ray AVC DTS-HD MA 6.1-TTG



The Lord of the Rings Trilogy 2001-2003 Extended Editions 1080p Blu-ray AVC DTS-HD MA 6.1-TTG screenshots



DISC INFO:

Disc Title:     THE_RETURN_OF_THE_KING_EXT_PT2
Disc Size:      41,596,575,566 bytes
Protection:     AACS
BD-Java:        Yes
BDInfo:         0.5.8.7 (compatible layout created by DVDFab 10.2.1.7)

PLAYLIST REPORT:

Name:                   00100.MPLS  
Length:                 2:15:35.460 (h:m:s.ms)
Size:                   40,962,275,328 bytes
Total Bitrate:          40.28 Mbps

VIDEO:

Codec                   Bitrate             Description    
-----                   -------             -----------    
MPEG-4 AVC Video        30704 kbps          1080p / 23.976 fps / 16:9 / High Profile 4.1 /

AUDIO:

Codec                           Language        Bitrate         Description    
-----                           --------        -------         -----------    
DTS-HD Master Audio             English         4624 kbps       6.1 / 48 kHz / 4624 kbps / 24-bit (DTS Core: 6.1-ES / 48 kHz / 1509 kbps / 24-bit)
Dolby Digital EX Audio          Polish          640 kbps        5.1-EX / 48 kHz / 640 kbps
Dolby Digital EX Audio          Thai            640 kbps        5.1-EX / 48 kHz / 640 kbps
Dolby Digital Audio             English         192 kbps        2.0 / 48 kHz / 192 kbps / Dolby Surround
Dolby Digital Audio             English         192 kbps        2.0 / 48 kHz / 192 kbps / Dolby Surround
Dolby Digital Audio             English         192 kbps        2.0 / 48 kHz / 192 kbps / Dolby Surround
Dolby Digital Audio             English         192 kbps        2.0 / 48 kHz / 192 kbps / Dolby Surround

SUBTITLES:

Codec                           Language        Bitrate         Description    
-----                           --------        -------         -----------    
Presentation Graphics           English         11.167 kbps                    
Presentation Graphics           Chinese         8.41 kbps                      
Presentation Graphics           Korean          7.869 kbps                      
Presentation Graphics           Chinese         8.568 kbps                      
Presentation Graphics           Czech           8.43 kbps                      
Presentation Graphics           Polish          8.611 kbps                      
Presentation Graphics           Romanian        9.504 kbps                      
Presentation Graphics           Thai            7.605 kbps                      
Presentation Graphics           English         5.783 kbps                      
Presentation Graphics           Chinese         68.29 kbps                      
Presentation Graphics           Korean          59.304 kbps                    
Presentation Graphics           English         8.066 kbps                      
Presentation Graphics           Chinese         66.453 kbps                    
Presentation Graphics           Korean          56.713 kbps                    
Presentation Graphics           English         7.131 kbps                      
Presentation Graphics           Chinese         62.686 kbps                    
Presentation Graphics           Korean          52.023 kbps                    
Presentation Graphics           English         9.735 kbps                      
Presentation Graphics           Chinese         77.271 kbps                    
Presentation Graphics           Korean          67.951 kbps                    
Presentation Graphics           English         0.019 kbps                      
Presentation Graphics           Polish          0.042 kbps                      
Presentation Graphics           Thai            0.025 kbps                      

FILES:

Name            Time In         Length          Size            Total Bitrate  
----            -------         ------          ----            -------------  
00005.M2TS      0:00:00.000     2:15:35.460     40,962,275,328  40,280 kbps    





The Lord of the Rings Trilogy 2001-2003 Extended Editions 1080p Blu-ray AVC DTS-HD MA 6.1-TTG screenshotsThe Lord of the Rings Trilogy 2001-2003 Extended Editions 1080p Blu-ray AVC DTS-HD MA 6.1-TTG screenshotsThe Lord of the Rings Trilogy 2001-2003 Extended Editions 1080p Blu-ray AVC DTS-HD MA 6.1-TTG screenshots
The Lord of the Rings Trilogy 2001-2003 Extended Editions 1080p Blu-ray AVC DTS-HD MA 6.1-TTG screenshotsThe Lord of the Rings Trilogy 2001-2003 Extended Editions 1080p Blu-ray AVC DTS-HD MA 6.1-TTG screenshotsThe Lord of the Rings Trilogy 2001-2003 Extended Editions 1080p Blu-ray AVC DTS-HD MA 6.1-TTG screenshots


















TitleThe Lord of the Rings: The Fellowship of the Ring
Year2001
Genre
Rating8.8 (1,486,900 votes)
PlotAn ancient Ring thought lost for centuries has been found, and through a strange twist of fate has been given to a small Hobbit named Frodo. When Gandalf discovers the Ring is in fact the One Ring of the Dark Lord Sauron, Frodo must make an epic quest to the Cracks of Doom in order to destroy it. However, he does not go alone. He is joined by Gandalf, Legolas the elf, Gimli the Dwarf, Aragorn, Boromir, and his three Hobbit friends Merry, Pippin, and Samwise. Through mountains, snow, darkness,…
DirectorPeter Jackson
CastsAlan Howard,Noel Appleby,Sean Astin,Sala Baker,Sean Bean…
Runtime178 min
Genres
The Lord of the Rings: The Fellowship of the Ring


Kong Skull Island 2017 BluRay 1080p x264 Atmos TrueHD 7 1-HDCRobot Overlords 2014 1080p BluRay DTS x264-FTOThe Youth 2014 720p BluRay DD5.1 x264-TRiMAmerican Sniper 2014 720p BluRay DD5.1 x264-VietHDTerminator 2: Judgment Day 1991 3in1 Hybrid 1080p BluRay DD-EX5.1 x264-EbPCharley Varrick 1973 720p BluRay FLAC2 0 x264-SbR

Only members can create comment.