NetHD.org

The Odd Family: Zombie on Sale 2019 1080p HDRip H264 AAC-NonDRM

Download The Odd Family: Zombie on Sale 2019 1080p HDRip H264 AAC-NonDRM 
Small DescriptionZombie Đại Hạ Giá - Vietnamese Sub
Basic Info
Uploaded byAnonymous at 2019-03-17 20:24:30
Action
Social
  • 1
Hot Meter
  • Views: 151
  • Hits: 44
  • Snatched: 34 x time(s)
  • Last Action: 2019-03-23 17:46:19
Peers9 Seeder | 0 Leecher


General

Complete name                            : The.Odd.Family.Zombie.on.Sale.2018.1080p.FHDRip.H264.AAC-NonDRM.mp4

Format                                   : MPEG-4

Format profile                           : Base Media

Codec ID                                 : isom (mp41)

File size                                : 3.40 GiB

Duration                                 : 1 h 52 min

Overall bit rate mode                    : Variable

Overall bit rate                         : 4 348 kb/s

Encoded date                             : UTC 1970-01-01 00:00:00

Tagged date                              : UTC 1970-01-01 00:00:00

Writing application                      : PotEncoder

 

Video

ID                                       : 1

Format                                   : MPEG-4 Visual

Format profile                           : Simple@L1

Format settings, BVOP                    : No

Format settings, QPel                    : No

Format settings, GMC                     : No warppoints

Format settings, Matrix                  : Default (H.263)

Codec ID                                 : mp4v-20

Duration                                 : 1 h 52 min

Bit rate                                 : 4 191 kb/s

Width                                    : 1 920 pixels

Height                                   : 1 080 pixels

Display aspect ratio                     : 16:9

Frame rate mode                          : Constant

Frame rate                               : 24.000 FPS

Color space                              : YUV

Chroma subsampling                       : 4:2:0

Bit depth                                : 8 bits

Scan type                                : Progressive

Compression mode                         : Lossy

Bits/(Pixel*Frame)                       : 0.084

Stream size                              : 3.28 GiB (96%)

Writing library                          : Lavc52.108.0

Encoded date                             : UTC 1970-01-01 00:00:00

Tagged date                              : UTC 1970-01-01 00:00:00

 

Audio

ID                                       : 2

Format                                   : AAC LC

Format/Info                              : Advanced Audio Codec Low Complexity

Codec ID                                 : mp4a-40-2

Duration                                 : 1 h 52 min

Bit rate mode                            : Variable

Bit rate                                 : 152 kb/s

Channel(s)                               : 2 channels

Channel layout                           : L R

Sampling rate                            : 44.1 kHz

Frame rate                               : 43.066 FPS (1024 SPF)

Compression mode                         : Lossy

Stream size                              : 122 MiB (3%)

Encoded date                             : UTC 1970-01-01 00:00:00

Tagged date                              : UTC 1970-01-01 00:00:00
 
The Odd Family: Zombie on Sale 2019 1080p HDRip H264 AAC-NonDRM screenshotshttps://avistaz.to/images/screens/9/v/t/9vtwsrxl1sts.mid.jpg[/img]
The Odd Family: Zombie on Sale 2019 1080p HDRip H264 AAC-NonDRM screenshotshttps://avistaz.to/images/screens/1/q/m/1qmh3irmdkpp.mid.jpg[/img]
The Odd Family: Zombie on Sale 2019 1080p HDRip H264 AAC-NonDRM screenshotshttps://avistaz.to/images/screens/f/2/0/f20jkzwnzagz.mid.jpg[/img]
The Odd Family: Zombie on Sale 2019 1080p HDRip H264 AAC-NonDRM screenshotshttps://avistaz.to/images/screens/0/u/1/0u1cgnteegie.mid.jpg[/img]
The Odd Family: Zombie on Sale 2019 1080p HDRip H264 AAC-NonDRM screenshotshttps://avistaz.to/images/screens/w/p/w/wpwdn2sj1lp5.mid.jpg[/img]
The Odd Family: Zombie on Sale 2019 1080p HDRip H264 AAC-NonDRM screenshotshttps://avistaz.to/images/screens/o/v/5/ov5ww9njph5a.mid.jpg[/img]
TitleZombie Dai Ha Giá
Year2019
GenreComedy
Rating5.9 (16 votes)
Plotn/A
Directorn/A
Castsn/A
Runtime112 min
GenresComedy
Zombie Dai Ha Giá


Entourage 2015 1080p BluRay DTS x264-TayTOThe Spectacular Now 2013 720p BluRay DTS x264-CtrlHDRobot & Frank 2012 720p BluRay DD5.1 x264-CtrlHDBrigsby Bear 2017 720p BluRay DD5.1 x264-VietHDFebbre da cavallo 1976 mHD BluRay FLAC2.0  x264-TRiMWar on Everyone 2016 mHD Bluray DD5.1 x264-TRiM

Only members can create comment.