NetHD.org

Cujo 1983 1080p BluRay DTS x264-PTer

Download Cujo 1983 1080p BluRay DTS x264-PTer 
Small DescriptionChó Điên
Basic Info
Uploaded byAnonymous at 2019-05-17 21:05:38
Action
Social
  • 1
Hot Meter
  • Views: 121
  • Hits: 4
  • Snatched: 1 x time(s)
  • Last Action: 2019-05-23 04:23:50
Peers0 Seeder | 0 Leecher


Cujo 1983 1080p BluRay DTS x264-PTer screenshots




Quote
General
Unique ID                                : 47926673896303565642757644733981243796 (0x240E5775AA4595C2415EBF7901CDB994)
Complete name                            : /media/sdq1/nethd/private/rtorrent/data/Cujo.1983.BluRay.1080p.x264.DTS5.1-PTer.mkv
Format                                   : Matroska
Format version                           : Version 4 / Version 2
File size                                : 15.0 GiB
Duration                                 : 1 h 32 min
Overall bit rate                         : 23.1 Mb/s
Encoded date                             : UTC 2019-05-11 11:27:10
Writing application                      : mkvmerge v26.0.0 ('In The Game') 64-bit
Writing library                          : libebml v1.3.6 + libmatroska v1.4.9

Video
ID                                       : 7
Format                                   : AVC
Format/Info                              : Advanced Video Codec
Format profile                           : High@L4.1
Format settings, CABAC                   : Yes
Format settings, ReFrames                : 4 frames
Codec ID                                 : V_MPEG4/ISO/AVC
Duration                                 : 1 h 32 min
Bit rate                                 : 21.5 Mb/s
Width                                    : 1 920 pixels
Height                                   : 1 040 pixels
Display aspect ratio                     : 1.85:1
Frame rate mode                          : Constant
Frame rate                               : 23.976 (24000/1001) FPS
Color space                              : YUV
Chroma subsampling                       : 4:2:0
Bit depth                                : 8 bits
Scan type                                : Progressive
Bits/(Pixel*Frame)                       : 0.449
Stream size                              : 13.9 GiB (93%)
Writing library                          : x264 core 157 r2970+47 cae74a0 t_mod_New [0-bit@all X86_64]
Encoding settings                        : cabac=1 / ref=4 / deblock=1:-3:-3 / analyse=0x3:0x133 / me=umh / subme=11 / psy=1 / fade_compensate=0.00 / psy_rd=0.98:0.00 / mixed_ref=1 / me_range=32 / chroma_me=1 / trellis=2 / 8x8dct=1 / cqm=0 / deadzone=21,11 / fast_pskip=0 / chroma_qp_offset=-2 / threads=12 / lookahead_threads=2 / sliced_threads=0 / nr=0 / decimate=0 / interlaced=0 / bluray_compat=0 / constrained_intra=0 / fgo=0 / bframes=9 / b_pyramid=2 / b_adapt=2 / b_bias=0 / direct=3 / weightb=1 / open_gop=0 / weightp=2 / keyint=250 / keyint_min=23 / scenecut=40 / intra_refresh=0 / rc_lookahead=250 / rc=crf / mbtree=1 / crf=17.0000 / qcomp=0.60 / qpmin=0:0:0 / qpmax=69:69:69 / qpstep=4 / ip_ratio=1.30 / aq=3:0.65 / aq-sensitivity=10.00 / aq-factor=1.00:1.00:1.00 / aq2=0 / aq3=0 / zones=0,910,b=0.3/3770,11824,b=1.50/24813,27289,b=1.50/52422,56006,b=1.50/79671,85456,b=1.50/103659,106008,b=1.50/129750,133454,b=0.3
Language                                 : English
Default                                  : Yes
Forced                                   : No
Color range                              : Limited
Color primaries                          : BT.709
Matrix coefficients                      : BT.709

Audio #1
ID                                       : 4
Format                                   : DTS
Format/Info                              : Digital Theater Systems
Mode                                     : 16
Format settings, Endianness              : Big
Codec ID                                 : A_DTS
Duration                                 : 1 h 32 min
Bit rate mode                            : Constant
Bit rate                                 : 1 509 kb/s
Channel(s)                               : 6 channels
Channel positions                        : Front: L C R, Side: L R, LFE
Sampling rate                            : 48.0 kHz
Frame rate                               : 93.750 FPS (512 spf)
Bit depth                                : 24 bits
Compression mode                         : Lossy
Stream size                              : 1 001 MiB (7%)
Language                                 : English
Default                                  : Yes
Forced                                   : No

Audio #2
ID                                       : 5
Format                                   : AAC
Format/Info                              : Advanced Audio Codec
Format profile                           : HE-AAC / LC
Codec ID                                 : A_AAC
Duration                                 : 1 h 32 min
Bit rate                                 : 63.2 kb/s
Channel(s)                               : 2 channels
Channel positions                        : Front: L R
Sampling rate                            : 48.0 kHz / 24.0 kHz
Frame rate                               : 23.438 FPS (1024 spf)
Compression mode                         : Lossy
Delay relative to video                  : 31 ms
Stream size                              : 42.0 MiB (0%)
Title                                    : Commentary by director Lewis Teague
Language                                 : English
Default                                  : No
Forced                                   : No

Audio #3
ID                                       : 6
Format                                   : AAC
Format/Info                              : Advanced Audio Codec
Format profile                           : HE-AAC / LC
Codec ID                                 : A_AAC
Duration                                 : 1 h 32 min
Bit rate                                 : 68.7 kb/s
Channel(s)                               : 2 channels
Channel positions                        : Front: L R
Sampling rate                            : 48.0 kHz / 24.0 kHz
Frame rate                               : 23.438 FPS (1024 spf)
Compression mode                         : Lossy
Delay relative to video                  : 31 ms
Stream size                              : 45.6 MiB (0%)
Title                                    : Commentary by film historian Lee Gambin
Language                                 : English
Default                                  : No
Forced                                   : No

Text #1
ID                                       : 1
Format                                   : UTF-8
Codec ID                                 : S_TEXT/UTF8
Codec ID/Info                            : UTF-8 Plain Text
Duration                                 : 1 h 23 min
Bit rate                                 : 31 b/s
Count of elements                        : 704
Stream size                              : 19.3 KiB (0%)
Language                                 : English
Default                                  : Yes
Forced                                   : No

Text #2
ID                                       : 2
Format                                   : UTF-8
Codec ID                                 : S_TEXT/UTF8
Codec ID/Info                            : UTF-8 Plain Text
Duration                                 : 1 h 27 min
Bit rate                                 : 32 b/s
Count of elements                        : 799
Stream size                              : 20.7 KiB (0%)
Title                                    : SDH
Language                                 : English
Default                                  : No
Forced                                   : No

Text #3
ID                                       : 3
Format                                   : UTF-8
Codec ID                                 : S_TEXT/UTF8
Codec ID/Info                            : UTF-8 Plain Text
Duration                                 : 1 h 23 min
Bit rate                                 : 25 b/s
Count of elements                        : 836
Stream size                              : 15.8 KiB (0%)
Language                                 : Chinese
Default                                  : No
Forced                                   : No


TitleCujo
Year1983
Genre
Rating6 (34,375 votes)
PlotDonna Trenton is a frustrated suburban housewife whose life is in turmoil after her husband learns about her having an affair. Brett Camber is a young boy whose only companion is a Saint-Bernard named "Cujo", who in turn is bitten by a rabid bat. Whilst Vic, Donna's husband is away on business, and thinking over his marital troubles, Donna and her 5-year-old son Tad take her Pinto to Brett Cambers' dad's car shop... the car fails, and "Cujo" is very, very sick... Written by Miguel Cane
DirectorLewis Teague
CastsDee Wallace,Danny Pintauro,Daniel Hugh Kelly,Christopher Stone,Ed Lauter…
Runtime93 min
Genres
Cujo


Half Light 2006 720p BluRay AC3 x264-DONThe Haunting in Connecticut 2: Ghosts of Georgia 2013 1080p BluRay DTS x264-EbPAnnabelle 2014 mHD BluRay DD5.1 x264-TRiMKotoko 2012 1080p BluRay DTS x264-EbPLisa e il diavolo 1974 720p BluRay FLAC x264-CRiSCDead Collections 2012 720p BluRay DTS x264-NOSCREENS

Only members can create comment.