NetHD.org

Naked Weapon 2002 1080p BluRay DD5.1 x264-aBD

Download Naked Weapon 2002 1080p BluRay DD5.1 x264-aBD 
Small DescriptionDetails the workings of a mysterious assassination organization, (codenamed: Naked Weapon), led by its globally feared and master assassin, Fiona Birch. It essays the modus operandi of Fiona where she assassinates a crime mob boss and his mooks. A trained assassin, she violently breaks the spine of a fat mob boss using the infamous Deadly Spine Rip technique.
Basic Info
Uploaded byAnonymous at 2019-05-18 00:01:46
Action
Social
  • 3
Hot Meter
  • Views: 212
  • Hits: 23
  • Snatched: 12 x time(s)
  • Last Action: 2019-05-24 07:50:38
Peers4 Seeder | 1 Leecher


General
Unique ID                                : 225912533347825671313436620638095082223 (0xA9F52BD8EBACBB0FAE3BC133F2E702EF)
Format                                   : Matroska
Format version                           : Version 1
File size                                : 7.95 GiB
Duration                                 : 1 h 31 min
Overall bit rate                         : 12.4 Mb/s
Encoded date                             : UTC 2009-05-18 12:13:05
Writing application                      : mkvmerge v2.0.2 ('You're My Flame') built on Feb 21 2007 23:40:55
Writing library                          : libebml v0.7.7 + libmatroska v0.8.1
 
Video
ID                                       : 1
Format                                   : AVC
Format/Info                              : Advanced Video Codec
Format profile                           : High@L4.1
Format settings, CABAC                   : Yes
Format settings, ReFrames                : 4 frames
Codec ID                                 : V_MPEG4/ISO/AVC
Duration                                 : 1 h 31 min
Bit rate                                 : 11.8 Mb/s
Width                                    : 1 920 pixels
Height                                   : 1 064 pixels
Display aspect ratio                     : 16:9
Frame rate mode                          : Constant
Frame rate                               : 24.000 FPS
Color space                              : YUV
Chroma subsampling                       : 4:2:0
Bit depth                                : 8 bits
Scan type                                : Progressive
Bits/(Pixel*Frame)                       : 0.240
Stream size                              : 7.38 GiB (93%)
Writing library                          : x264 core 67 r1134M b8808bf
Encoding settings                        : cabac=1 / ref=4 / deblock=1:-1:-1 / analyse=0x3:0x113 / me=umh / subme=7 / psy_rd=1.0:0.0 / mixed_ref=1 / me_range=16 / chroma_me=1 / trellis=2 / 8x8dct=1 / cqm=0 / deadzone=21,11 / chroma_qp_offset=-2 / threads=6 / nr=0 / decimate=1 / mbaff=0 / bframes=3 / b_pyramid=0 / b_adapt=2 / b_bias=0 / direct=3 / wpredb=1 / keyint=250 / keyint_min=25 / scenecut=40 / rc=2pass / bitrate=11778 / ratetol=1.0 / qcomp=0.60 / qpmin=10 / qpmax=51 / qpstep=4 / cplxblur=20.0 / qblur=0.5 / vbv_maxrate=50000 / vbv_bufsize=50000 / ip_ratio=1.40 / pb_ratio=1.30 / aq=1:1.00
Language                                 : English
Default                                  : Yes
Forced                                   : No
 
Audio
ID                                       : 2
Format                                   : AC-3
Format/Info                              : Audio Coding 3
Mode extension                           : CM (complete main)
Format settings, Endianness              : Big
Codec ID                                 : A_AC3
Duration                                 : 1 h 31 min
Bit rate mode                            : Constant
Bit rate                                 : 640 kb/s
Channel(s)                               : 6 channels
Channel positions                        : Front: L C R, Side: L R, LFE
Sampling rate                            : 48.0 kHz
Frame rate                               : 31.250 FPS (1536 spf)
Bit depth                                : 16 bits
Compression mode                         : Lossy
Stream size                              : 419 MiB (5%)
Language                                 : English
Default                                  : Yes
Forced                                   : No

Naked Weapon 2002 1080p BluRay DD5.1 x264-aBD screenshots Naked Weapon 2002 1080p BluRay DD5.1 x264-aBD screenshots Naked Weapon 2002 1080p BluRay DD5.1 x264-aBD screenshots Naked Weapon 2002 1080p BluRay DD5.1 x264-aBD screenshots Naked Weapon 2002 1080p BluRay DD5.1 x264-aBD screenshots Naked Weapon 2002 1080p BluRay DD5.1 x264-aBD screenshots Naked Weapon 2002 1080p BluRay DD5.1 x264-aBD screenshots Naked Weapon 2002 1080p BluRay DD5.1 x264-aBD screenshots Naked Weapon 2002 1080p BluRay DD5.1 x264-aBD screenshots
TitleChek lo dak gung
Year2002
Genre
Rating5.6 (6,627 votes)
PlotDetails the workings of a mysterious assassination organization, (codenamed: Naked Weapon), led by its globally feared and master assassin, Fiona Birch. It essays the modus operandi of Fiona where she assassinates a crime mob boss and his mooks. A trained assassin, she violently breaks the spine of a fat mob boss using the infamous Deadly Spine Rip technique.
DirectorSiu-Tung Ching
CastsAnya,Maggie Q,Daniel Wu,Jewel Lee,Pei-Pei Cheng…
Runtime92 min
Genres
Chek lo dak gung


The Age of Shadows 2016 1080p BluRay DD5.1 x264-DONBreaking News 2004 1080p BluRay DD5.1 x264-HDSThree 2016 1080p BluRay DD-EX x264-IDE21 Jump Street 2012 720p BluRay DD5.1 x264-ThDThe Last Man On Earth S03E01 720p HDTV x264-AVSSing 2016 ViE DUB mHD Bluray DD2.0 x264-TRiM

Only members can create comment.