NetHD.org

Shadowless Sword 2005 1080p Bluray DTS x264-SHiTSoNy

Download Shadowless Sword 2005 1080p Bluray DTS x264-SHiTSoNy 
Small DescriptionIn ancient Korea, the Prince of Beahae has been assassinated and the kingdom is in turmoil. The only hope lies with So-Ha, a beautiful but deadly female warrior, who is sent to find Prince Jeong and place him on the throne after years of exile. The killer blade army has other ideas, dispatching a host of fighters to stop So-Ha including the icy female assassin Mae. Written by Ladywhirwind
Basic Info
Uploaded byAnonymous at 2019-07-14 14:20:05
Action
Hot Meter
  • Views: 82
  • Hits: 12
  • Snatched: 7 x time(s)
  • Last Action: 2019-07-17 20:43:24
Peers1 Seeder | 1 Leecher



General
Unique ID                                : 203008602693860998410714078947983889873 (0x98BA08E16B722A32A025FE24721215D1)
Format                                   : Matroska
Format version                           : Version 1
File size                                : 7.93 GiB
Duration                                 : 1 h 56 min
Overall bit rate                         : 9 753 kb/s
Encoded date                             : UTC 2009-03-08 18:26:36
Writing application                      : mkvmerge v2.3.0 ('Freak U') built on Sep  8 2008 18:32:16
Writing library                          : libebml v0.7.7 + libmatroska v0.8.1
 
Video
ID                                       : 1
Format                                   : AVC
Format/Info                              : Advanced Video Codec
Format profile                           : High@L4.1
Format settings, CABAC                   : Yes
Format settings, ReFrames                : 5 frames
Codec ID                                 : V_MPEG4/ISO/AVC
Duration                                 : 1 h 56 min
Bit rate                                 : 7 722 kb/s
Width                                    : 1 920 pixels
Height                                   : 816 pixels
Display aspect ratio                     : 2.35:1
Frame rate mode                          : Constant
Frame rate                               : 23.976 (24000/1001) FPS
Color space                              : YUV
Chroma subsampling                       : 4:2:0
Bit depth                                : 8 bits
Scan type                                : Progressive
Bits/(Pixel*Frame)                       : 0.206
Stream size                              : 6.11 GiB (77%)
Writing library                          : x264 core 67 r1120M 8544346
Encoding settings                        : cabac=1 / ref=5 / deblock=1:-3:-2 / analyse=0x3:0x113 / me=umh / subme=9 / psy_rd=1.0:0.0 / mixed_ref=1 / me_range=24 / chroma_me=1 / trellis=2 / 8x8dct=1 / cqm=0 / deadzone=21,11 / chroma_qp_offset=-4 / threads=3 / nr=0 / decimate=1 / mbaff=0 / bframes=3 / b_pyramid=1 / b_adapt=2 / b_bias=0 / direct=3 / wpredb=1 / keyint=250 / keyint_min=25 / scenecut=40 / rc=2pass / bitrate=7722 / ratetol=1.0 / qcomp=0.60 / qpmin=10 / qpmax=51 / qpstep=4 / cplxblur=20.0 / qblur=0.5 / vbv_maxrate=40000 / vbv_bufsize=40000 / ip_ratio=1.40 / pb_ratio=1.30 / aq=1:1.10 / zones=161466,167398,q=26
Default                                  : Yes
Forced                                   : No
 
Audio
ID                                       : 2
Format                                   : DTS
Format/Info                              : Digital Theater Systems
Format profile                           : HRA / Core
Mode                                     : 16
Format settings, Endianness              : Big
Codec ID                                 : A_DTS
Duration                                 : 1 h 56 min
Bit rate mode                            : Constant
Bit rate                                 : 2 046 kb/s / 1 509 kb/s
Channel(s)                               : 6 channels
Channel positions                        : Front: L C R, Side: L R, LFE
Sampling rate                            : 48.0 kHz
Frame rate                               : 93.750 FPS (512 spf)
Bit depth                                : 16 bits / 24 bits
Compression mode                         : Lossy
Stream size                              : 1.66 GiB (21%)
Language                                 : Korean
Default                                  : Yes
Forced                                   : No
 
Text #1
ID                                       : 3
Format                                   : UTF-8
Codec ID                                 : S_TEXT/UTF8
Codec ID/Info                            : UTF-8 Plain Text
Language                                 : Dutch
Default                                  : Yes
Forced                                   : No
 
Text #2
ID                                       : 4
Format                                   : UTF-8
Codec ID                                 : S_TEXT/UTF8
Codec ID/Info                            : UTF-8 Plain Text
Language                                 : English
Default                                  : No
Forced                                   : No
 
Shadowless Sword 2005 1080p Bluray DTS x264-SHiTSoNy screenshots Shadowless Sword 2005 1080p Bluray DTS x264-SHiTSoNy screenshots Shadowless Sword 2005 1080p Bluray DTS x264-SHiTSoNy screenshots Shadowless Sword 2005 1080p Bluray DTS x264-SHiTSoNy screenshots Shadowless Sword 2005 1080p Bluray DTS x264-SHiTSoNy screenshots Shadowless Sword 2005 1080p Bluray DTS x264-SHiTSoNy screenshots Shadowless Sword 2005 1080p Bluray DTS x264-SHiTSoNy screenshots Shadowless Sword 2005 1080p Bluray DTS x264-SHiTSoNy screenshots Shadowless Sword 2005 1080p Bluray DTS x264-SHiTSoNy screenshots
TitleMuyeong geom
Year2005
Genre
Rating6.5 (2,702 votes)
PlotIn ancient Korea, the Prince of Beahae has been assassinated and the kingdom is in turmoil. The only hope lies with So-Ha, a beautiful but deadly female warrior, who is sent to find Prince Jeong and place him on the throne after years of exile. The killer blade army has other ideas, dispatching a host of fighters to stop So-Ha including the icy female assassin Mae. Written by Ladywhirwind
DirectorYoung-jun Kim
CastsHyeon-jun Shin,So-yi Yoon,Seo-jin Lee,Ki-yong Lee,Jin Bon-jin…
Runtime117 min
Muyeong geom


Twelve Monkeys 1995 720p BluRay DD5.1 x264-DONLee Rock I 1991 mHD BluRay DD5.1 x264-TRiMLost in Wrestling 2015 720p BluRay DD5.1 x264-WiKiHighway 2014 720p BluRay DD5.1 x264-LolHDSelf/less 2015 ViE 1080p Blu-ray AVC DTS-HD MA 5.1-NetBDDetective Dee: The Four Heavenly Kings 2018 ViE 1080p WEB-DL DD5.1 H.264-JadViE

Only members can create comment.