NetHD.org

Immoral Tales 1973 1080p GBR BluRay Remux AVC DTS-HD MA 1.0-TDD

Download Immoral Tales 1973 1080p GBR BluRay Remux AVC DTS-HD MA 1.0-TDD Free
Small Description18+ | Contes immoraux
Basic Info
Uploaded byAnonymous at 2019-07-14 14:21:03
Action
Hot Meter
  • Views: 532
  • Hits: 46
  • Snatched: 32 x time(s)
  • Last Action: 2019-07-18 01:50:05
Peers14 Seeder | 0 Leecher



Immoral Tales 1973 1080p GBR BluRay Remux AVC DTS-HD MA 1.0-TDD screenshots





Quote
Remux Information:
Name: Immoral.Tales.1973.GBR.BluRay.Remux.1080p.AVC.DTS-HD.MA.1.0-TDD
Source: Immoral.Tales.1973.GBR.1080p.Blu-ray.AVC.LPCM.1.0-TIK (Thanks!)
Edition: Arrow | United Kingdom
Video: MPEG-4 AVC Video / 34988 kbps / 1080p / 23.976 fps / 16:9 / High Profile 4.1
Audio: DTS-HD Master Audio / 1.0 / 48 kHz / 1082 kbps / 24-bit
Subtitles: (PGS) English
Chapters: Included (Named)



Quote
General
Unique ID : 170565485867680472527518688826546142592 (0x8051B7B94BF0B7E5AF92315C051B3D80)
Complete name : E:\Documents\Content\Remux\Immoral.Tales.1973.GBR.BluRay.Remux.1080p.AVC.DTS-HD.MA.1.0-TDD.mkv
Format : Matroska
Format version : Version 4 / Version 2
File size : 26.0 GiB
Duration : 1 h 43 min
Overall bit rate mode : Variable
Overall bit rate : 36.1 Mb/s
Encoded date : UTC 2017-09-30 14:06:45
Writing application : mkvmerge v15.0.0 ('Duel with the Devil') 64-bit
Writing library : libebml v1.3.5 + libmatroska v1.4.5

Video
ID : 1
Format : AVC
Format/Info : Advanced Video Codec
Format profile : High@L4.1
Format settings, CABAC : Yes
Format settings, RefFrames : 3 frames
Codec ID : V_MPEG4/ISO/AVC
Duration : 1 h 43 min
Bit rate mode : Variable
Bit rate : 35.0 Mb/s
Maximum bit rate : 40.0 Mb/s
Width : 1 920 pixels
Height : 1 080 pixels
Display aspect ratio : 16:9
Frame rate mode : Constant
Frame rate : 23.976 (24000/1001) FPS
Color space : YUV
Chroma subsampling : 4:2:0
Bit depth : 8 bits
Scan type : Progressive
Bits/(Pixel*Frame) : 0.704
Stream size : 25.2 GiB (97%)
Title : MPEG-4 AVC Video / 34988 kbps / 1080p / 23.976 fps / 16:9 / High Profile 4.1
Writing library : x264 core 128 r2216 198a7ea
Encoding settings : cabac=1 / ref=4 / deblock=0:-1:-1 / analyse=0x3:0x113 / me=umh / subme=8 / psy=1 / psy_rd=1.00:0.15 / mixed_ref=1 / me_range=16 / chroma_me=1 / trellis=1 / 8x8dct=1 / cqm=0 / deadzone=21,11 / fast_pskip=1 / chroma_qp_offset=-3 / threads=12 / lookahead_threads=2 / sliced_threads=0 / slices=4 / nr=0 / decimate=1 / interlaced=0 / bluray_compat=1 / constrained_intra=0 / bframes=3 / b_pyramid=1 / b_adapt=2 / b_bias=0 / direct=3 / weightb=1 / open_gop=1 / weightp=1 / keyint=24 / keyint_min=1 / scenecut=40 / intra_refresh=0 / rc_lookahead=24 / rc=2pass / mbtree=0 / bitrate=35000 / ratetol=0.0 / qcomp=0.00 / qpmin=0 / qpmax=69 / qpstep=4 / cplxblur=20.0 / qblur=0.5 / vbv_maxrate=40000 / vbv_bufsize=30000 / nal_hrd=vbr / ip_ratio=1.40 / pb_ratio=1.30 / aq=1:0.50
Language : French
Default : Yes
Forced : No
Color range : Limited
Color primaries : BT.709
Transfer characteristics : BT.709
Matrix coefficients : BT.709

Audio
ID : 2
Format : DTS
Format/Info : Digital Theater Systems
Format profile : MA / Core
Mode : 16
Format settings, Endianness : Big
Codec ID : A_DTS
Duration : 1 h 43 min
Bit rate mode : Variable / Constant
Bit rate : 1 082 kb/s / 768 kb/s
Channel(s) : 1 channel
Channel positions : Front: C
Sampling rate : 48.0 kHz
Frame rate : 93.750 FPS (512 SPF)
Bit depth : 24 bits
Compression mode : Lossless / Lossy
Stream size : 798 MiB (3%)
Title : DTS-HD Master Audio / 1.0 / 48 kHz / 1082 kbps / 24-bit
Language : French
Default : Yes
Forced : No

Text
ID : 3
Format : PGS
Muxing mode : zlib
Codec ID : S_HDMV/PGS
Codec ID/Info : Picture based subtitle format used on BDs/HD-DVDs
Duration : 1 h 42 min
Bit rate : 7 508 b/s
Count of elements : 584
Stream size : 5.53 MiB (0%)
Language : English
Default : Yes
Forced : No

Menu
00:00:00.000 : en:The Tide
00:24:03.192 : en:Therese Philosophe
00:46:31.580 : en:Erzsebet Bathory
01:21:52.533 : en:Lucrezia Borgia

Immoral Tales 1973 1080p GBR BluRay Remux AVC DTS-HD MA 1.0-TDD screenshots Immoral Tales 1973 1080p GBR BluRay Remux AVC DTS-HD MA 1.0-TDD screenshots Immoral Tales 1973 1080p GBR BluRay Remux AVC DTS-HD MA 1.0-TDD screenshots

Immoral Tales 1973 1080p GBR BluRay Remux AVC DTS-HD MA 1.0-TDD screenshots Immoral Tales 1973 1080p GBR BluRay Remux AVC DTS-HD MA 1.0-TDD screenshots Immoral Tales 1973 1080p GBR BluRay Remux AVC DTS-HD MA 1.0-TDD screenshots

TitleContes immoraux
Year1973
Genre
Rating5.7 (3,422 votes)
PlotFour erotic tales from in various historical eras. The first, 'The Tide', is set in the present day, and concerns a student and his young female cousin stranded on the beach by the tide, secluded from prying eyes. 'Therese Philosophe' is set in the nineteenth century, and concerns a girl being locked in her bedroom, where she contemplates the erotic potential of the objects contained within it. 'Erzsebet Bathory' is a portrait of the sixteenth-century countess who allegedly bathed in the blood…
DirectorWalerian Borowczyk
CastsLise Danvers,Fabrice Luchini,Charlotte Alexandra,Lisbeth Hummel,Paloma Picasso…
Runtime103 min
Contes immoraux


Black Book 2006 720p BluRay AC3 x264-RightSiZEDearest 2014 720p BluRay DD5.1 x264-iNKKramer vs. Kramer 1979 mHD BluRay DD5.1 x264-TRiMThe Innocents 2016 mHD BluRay DD5.1 x264-TRiMNever Let Me Go 2010 1080p Blu-ray AVC DTS-HD MA 5.1-NetBDEva Braun 2015 mHD BluRay DD5.1 x264-TRiM

Only members can create comment.