NetHD.org

The New York Ripper 1982 1080p BluRay DD2.0 x264

Download The New York Ripper 1982 1080p BluRay DD2.0 x264 Free
Small Description18+ | Lo squartatore di New York (original title)
Basic Info
Uploaded byAnonymous at 2019-07-14 18:20:21
Action
Hot Meter
  • Views: 486
  • Hits: 47
  • Snatched: 29 x time(s)
  • Last Action: 2019-07-18 01:50:03
Peers11 Seeder | 0 Leecher



The New York Ripper 1982 1080p BluRay DD2.0 x264 screenshots













The New York Ripper 1982 1080p BluRay DD2.0 x264 screenshots


General
Unique ID                                : 40855556018820013561953937413371359869 (0x1EBC7E6E78121353188952DD1A38727D)
Complete name                            : F:\MOVIE\The.New.York.Ripper.1982.4K.Restoration.BDRemux.1080p.mkv
Format                                   : Matroska
Format version                           : Version 4 / Version 2
File size                                : 23.5 GiB
Duration                                 : 1 h 33 min
Overall bit rate mode                    : Variable
Overall bit rate                         : 36.1 Mb/s
Encoded date                             : UTC 2019-07-11 10:35:47
Writing application                      : mkvmerge v35.0.0 ('All The Love In The World') 32-bit
Writing library                          : libebml v1.3.9 + libmatroska v1.5.2

Video
ID                                       : 1
Format                                   : AVC
Format/Info                              : Advanced Video Codec
Format profile                           : High@L4.1
Format settings                          : CABAC / 3 Ref Frames
Format settings, CABAC                   : Yes
Format settings, RefFrames               : 3 frames
Codec ID                                 : V_MPEG4/ISO/AVC
Duration                                 : 1 h 33 min
Bit rate mode                            : Variable
Bit rate                                 : 30.0 Mb/s
Maximum bit rate                         : 39.0 Mb/s
Width                                    : 1 920 pixels
Height                                   : 1 080 pixels
Display aspect ratio                     : 16:9
Frame rate mode                          : Constant
Frame rate                               : 23.976 (24000/1001) FPS
Color space                              : YUV
Chroma subsampling                       : 4:2:0
Bit depth                                : 8 bits
Scan type                                : Progressive
Bits/(Pixel*Frame)                       : 0.603
Stream size                              : 19.5 GiB (83%)
Writing library                          : x264 core 148 r2744 b97ae06
Encoding settings                        : cabac=1 / ref=4 / deblock=1:-2:-2 / analyse=0x3:0x133 / me=umh / subme=10 / psy=1 / psy_rd=1.00:0.25 / mixed_ref=1 / me_range=24 / chroma_me=1 / trellis=2 / 8x8dct=1 / cqm=0 / deadzone=6,6 / fast_pskip=1 / chroma_qp_offset=-4 / threads=12 / lookahead_threads=1 / sliced_threads=0 / slices=4 / nr=0 / decimate=0 / interlaced=0 / bluray_compat=1 / constrained_intra=0 / bframes=3 / b_pyramid=1 / b_adapt=2 / b_bias=0 / direct=3 / weightb=1 / open_gop=1 / weightp=1 / keyint=24 / keyint_min=1 / scenecut=40 / intra_refresh=0 / rc_lookahead=24 / rc=abr / mbtree=1 / bitrate=30000 / ratetol=1.0 / qcomp=0.80 / qpmin=0 / qpmax=69 / qpstep=4 / vbv_maxrate=39000 / vbv_bufsize=30000 / nal_hrd=vbr / filler=0 / ip_ratio=1.10 / aq=1:1.00
Default                                  : Yes
Forced                                   : No
Color range                              : Limited
Color primaries                          : BT.709
Transfer characteristics                 : BT.709
Matrix coefficients                      : BT.709

Audio #1
ID                                       : 2
Format                                   : AC-3
Format/Info                              : Audio Coding 3
Codec ID                                 : A_AC3
Duration                                 : 1 h 33 min
Bit rate mode                            : Constant
Bit rate                                 : 192 kb/s
Channel(s)                               : 2 channels
Channel positions                        : Front: L R
Sampling rate                            : 48.0 kHz
Frame rate                               : 31.250 FPS (1536 SPF)
Bit depth                                : 16 bits
Compression mode                         : Lossy
Stream size                              : 128 MiB (1%)
Title                                    : Сергей Визгунов
Language                                 : Russian
Service kind                             : Complete Main
Default                                  : Yes
Forced                                   : No

Audio #2
ID                                       : 3
Format                                   : AC-3
Format/Info                              : Audio Coding 3
Codec ID                                 : A_AC3
Duration                                 : 1 h 33 min
Bit rate mode                            : Constant
Bit rate                                 : 192 kb/s
Channel(s)                               : 2 channels
Channel positions                        : Front: L R
Sampling rate                            : 48.0 kHz
Frame rate                               : 31.250 FPS (1536 SPF)
Bit depth                                : 16 bits
Compression mode                         : Lossy
Stream size                              : 128 MiB (1%)
Title                                    : Сергей Кузнецов
Language                                 : Russian
Service kind                             : Complete Main
Default                                  : No
Forced                                   : No

Audio #3
ID                                       : 4
Format                                   : AC-3
Format/Info                              : Audio Coding 3
Codec ID                                 : A_AC3
Duration                                 : 1 h 33 min
Bit rate mode                            : Constant
Bit rate                                 : 192 kb/s
Channel(s)                               : 2 channels
Channel positions                        : Front: L R
Sampling rate                            : 48.0 kHz
Frame rate                               : 31.250 FPS (1536 SPF)
Bit depth                                : 16 bits
Compression mode                         : Lossy
Stream size                              : 128 MiB (1%)
Title                                    : Алексей Тимофеев
Language                                 : Russian
Service kind                             : Complete Main
Default                                  : No
Forced                                   : No

Audio #4
ID                                       : 5
Format                                   : DTS
Format/Info                              : Digital Theater Systems
Format profile                           : MA / Core
Codec ID                                 : A_DTS
Duration                                 : 1 h 33 min
Bit rate mode                            : Variable / Constant
Bit rate                                 : 3 840 kb/s / 960 kb/s
Channel(s)                               : 8 channels / 6 channels
Channel positions                        : Front: L C R, Side: L R, Back: L R, LFE / Front: L C R, Side: L R, LFE
Sampling rate                            : 48.0 kHz
Frame rate                               : 93.750 FPS (512 SPF)
Bit depth                                : 24 bits
Compression mode                         : Lossless / Lossy
Stream size                              : 2.49 GiB (11%)
Title                                    : English Dub 7.1 Remixed
Language                                 : English
Default                                  : No
Forced                                   : No

Audio #5
ID                                       : 6
Format                                   : DTS
Format/Info                              : Digital Theater Systems
Format profile                           : MA / Core
Codec ID                                 : A_DTS
Duration                                 : 1 h 33 min
Bit rate mode                            : Variable / Constant
Bit rate                                 : 768 kb/s / 318 kb/s
Channel(s)                               : 1 channel
Channel positions                        : Front: C
Sampling rate                            : 48.0 kHz
Frame rate                               : 93.750 FPS (512 SPF)
Bit depth                                : 24 bits
Compression mode                         : Lossless / Lossy
Stream size                              : 502 MiB (2%)
Title                                    : English Dub Original Mono
Language                                 : English
Default                                  : No
Forced                                   : No

Audio #6
ID                                       : 7
Format                                   : DTS
Format/Info                              : Digital Theater Systems
Format profile                           : MA / Core
Codec ID                                 : A_DTS
Duration                                 : 1 h 33 min
Bit rate mode                            : Variable / Constant
Bit rate                                 : 768 kb/s / 318 kb/s
Channel(s)                               : 1 channel
Channel positions                        : Front: C
Sampling rate                            : 48.0 kHz
Frame rate                               : 93.750 FPS (512 SPF)
Bit depth                                : 24 bits
Compression mode                         : Lossless / Lossy
Stream size                              : 504 MiB (2%)
Title                                    : Italian Dub Original Mono
Language                                 : Italian
Default                                  : No
Forced                                   : No

Audio #7
ID                                       : 8
Format                                   : AC-3
Format/Info                              : Audio Coding 3
Codec ID                                 : A_AC3
Duration                                 : 1 h 33 min
Bit rate mode                            : Constant
Bit rate                                 : 224 kb/s
Channel(s)                               : 2 channels
Channel positions                        : Front: L R
Sampling rate                            : 48.0 kHz
Frame rate                               : 31.250 FPS (1536 SPF)
Bit depth                                : 16 bits
Compression mode                         : Lossy
Stream size                              : 149 MiB (1%)
Title                                    : Audio Commentary with Troy Howarth, Author of Splintered Visions: Lucio Fulci and His Films
Language                                 : English
Service kind                             : Complete Main
Default                                  : No
Forced                                   : No

Text #1
ID                                       : 9
Format                                   : UTF-8
Codec ID                                 : S_TEXT/UTF8
Codec ID/Info                            : UTF-8 Plain Text
Duration                                 : 1 h 30 min
Bit rate                                 : 30 b/s
Count of elements                        : 621
Stream size                              : 20.1 KiB (0%)
Language                                 : English
Default                                  : No
Forced                                   : No

Text #2
ID                                       : 10
Format                                   : UTF-8
Codec ID                                 : S_TEXT/UTF8
Codec ID/Info                            : UTF-8 Plain Text
Duration                                 : 1 h 31 min
Bit rate                                 : 56 b/s
Count of elements                        : 1069
Stream size                              : 37.8 KiB (0%)
Title                                    : SDH
Language                                 : English
Default                                  : No
Forced                                   : No

Menu
00:00:00.000                             : :Main Titles / Brooklyn Bridge Girl
00:05:30.872                             : :Staten Ferry Island
00:11:43.161                             : :Coroner's Report
00:18:20.016                             : :Live Sex Show Death
00:25:16.598                             : :Call From A Killer
00:30:58.190                             : :Under The Table
00:35:22.037                             : :Subway Scare
00:40:38.353                             : :Hospital Nightmare
00:44:51.314                             : :Man Missing Two Fingers
00:49:22.543                             : :Sleeping With The Enemy
00:54:02.698                             : :Caught On Tape
01:02:29.537                             : :Left Alone
01:10:16.796                             : :A Special Offering
01:19:47.866                             : :The Motive
01:26:09.539                             : :Kill Or Be Killed
01:31:40.912                             : :End Credits













The New York Ripper 1982 1080p BluRay DD2.0 x264 screenshots


The New York Ripper 1982 1080p BluRay DD2.0 x264 screenshotsThe New York Ripper 1982 1080p BluRay DD2.0 x264 screenshotsThe New York Ripper 1982 1080p BluRay DD2.0 x264 screenshots
The New York Ripper 1982 1080p BluRay DD2.0 x264 screenshotsThe New York Ripper 1982 1080p BluRay DD2.0 x264 screenshotsThe New York Ripper 1982 1080p BluRay DD2.0 x264 screenshots
The New York Ripper 1982 1080p BluRay DD2.0 x264 screenshotsThe New York Ripper 1982 1080p BluRay DD2.0 x264 screenshotsThe New York Ripper 1982 1080p BluRay DD2.0 x264 screenshots

TitleLo squartatore di New York
Year1982
Genre
Rating6.4 (8,262 votes)
PlotKiller who talks like a duck wanders around New York City killing women by various means including slicing an eyeball with a razorblade. Detective Jack Headly is hot on his trail. Written by Humberto Amador
DirectorLucio Fulci
CastsJack Hedley,Almanta Suska,Howard Ross,Andrea Occhipinti,Alexandra Delli Colli…
Runtime91 min
Lo squartatore di New York


Infestation 2009 BluRay 720p DTS x264-CHDRatter 2015 1080p BluRay DTS x264-HDSTruth or Dare 2018 BluRay iPad 720p AAC2.0 x264-HDSPadHellions 2015 720p BluRay DTS x264-RARBGThe Charnel House 2016 1080p WEB-DL DD5.1 H.264-FGTYoure Next 2011 720p BluRay DTS x264-NTb

Only members can create comment.