NetHD.org

Riot Girls 2019 1080p WEB-DL DD5.1 x264-EVO

Download Riot Girls 2019 1080p WEB-DL DD5.1 x264-EVO 
Small DescriptionIn an alternate 1995, a mysterious disease has wiped out all of the adults. In this new age, two gangs are pitted against each other in a brutal war for territory, resources and survival.
Basic Info
Uploaded byAnonymous at 2019-09-13 21:41:22
Action
Hot Meter
  • Views: 121
  • Hits: 26
  • Snatched: 16 x time(s)
  • Last Action: 2019-09-18 10:01:00
Peers8 Seeder | 0 Leecher



Quote


Video
ID                                       : 3
Format                                   : AVC
Format/Info                              : Advanced Video Codec
Format profile                           : High@L4
Format settings, CABAC                   : Yes
Format settings, ReFrames                : 5 frames
Codec ID                                 : V_MPEG4/ISO/AVC
Duration                                 : 1h 21mn
Bit rate                                 : 4 553 Kbps
Width                                    : 1 912 pixels
Height                                   : 800 pixels
Display aspect ratio                     : 2.40:1
Frame rate mode                          : Constant
Frame rate                               : 23.976 fps
Color space                              : YUV
Chroma subsampling                       : 4:2:0
Bit depth                                : 8 bits
Scan type                                : Progressive
Bits/(Pixel*Frame)                       : 0.124
Stream size                              : 2.61 GiB (92%)
Language                                 : English
Default                                  : Yes
Forced                                   : No
Color range                              : Limited
Color primaries                          : BT.709
Transfer characteristics                 : BT.709
Matrix coefficients                      : BT.709

Audio
ID                                       : 2
Format                                   : AC-3
Format/Info                              : Audio Coding 3
Mode extension                           : CM (complete main)
Format settings, Endianness              : Big
Codec ID                                 : A_AC3
Duration                                 : 1h 21mn
Bit rate mode                            : Constant
Bit rate                                 : 384 Kbps
Channel(s)                               : 6 channels
Channel positions                        : Front: L C R, Side: L R, LFE
Sampling rate                            : 48.0 KHz
Frame rate                               : 31.250 fps (1536 spf)
Compression mode                         : Lossy
Delay relative to video                  : -42ms
Stream size                              : 225 MiB (8%)
Language                                 : English
Default                                  : Yes
Forced                                   : No

Text
ID                                       : 1
Format                                   : UTF-8
Codec ID                                 : S_TEXT/UTF8
Codec ID/Info                            : UTF-8 Plain Text
Duration                                 : 1h 21mn
Bit rate                                 : 75 bps
Count of elements                        : 1198
Stream size                              : 44.8 KiB (0%)
Language                                 : English
Default                                  : Yes
Forced                                   : No

Menu
00:00:00.000                             : en:1
00:11:07.834                             : en:2
00:21:26.327                             : en:3
00:32:20.856                             : en:4
00:43:09.337                             : en:5
00:55:02.590                             : en:6
01:02:55.437                             : en:7
01:15:55.757                             : en:8




Riot Girls 2019 1080p WEB-DL DD5.1 x264-EVO screenshots Riot Girls 2019 1080p WEB-DL DD5.1 x264-EVO screenshots Riot Girls 2019 1080p WEB-DL DD5.1 x264-EVO screenshots Riot Girls 2019 1080p WEB-DL DD5.1 x264-EVO screenshots Riot Girls 2019 1080p WEB-DL DD5.1 x264-EVO screenshots Riot Girls 2019 1080p WEB-DL DD5.1 x264-EVO screenshots Riot Girls 2019 1080p WEB-DL DD5.1 x264-EVO screenshots Riot Girls 2019 1080p WEB-DL DD5.1 x264-EVO screenshots Riot Girls 2019 1080p WEB-DL DD5.1 x264-EVO screenshots Riot Girls 2019 1080p WEB-DL DD5.1 x264-EVO screenshots
TitleRiot Girls
Year2019
Genre
Rating5.1 (59 votes)
Plotn/A
DirectorJovanka Vuckovic
CastsMadison Iseman,Jenny Raven,Paloma Kwiatkowski,Jake Sim,Munro Chambers…
Runtime81 min
Riot Girls


The Stakelander 2016 720p BluRay DTS x264-PSYCHDIron Girl Ultimate Weapon 2015 1080i HKG Blu-ray AVC TrueHD 5.1Spooky Encounters 1980 720p BluRay AAC5.1 x264-NvadR Hero the Movie 2015 1080p BluRay DTS x264-VietHDThe Long Kiss Goodnight 1996 720p BluRay DTS x264-CRiSCJohn Wick Chapter 3 Parabellum 2019 REPACK 1080p  WEB-DL DD+7.1 H.264-NTG

Only members can create comment.