NetHD.org

Haunt 2019 1080p WEB-DL DD5.1 x264-EVO

Download Haunt 2019 1080p WEB-DL DD5.1 x264-EVO 50%
Small DescriptionOn Halloween, a group of friends encounter an "extreme" haunted house that promises to feed on their darkest fears. The night turns deadly as they come to the horrifying realization that some nightmares are real.
Basic Info
Uploaded byAnonymous at 2019-09-13 21:44:12
Action
Hot Meter
  • Views: 144
  • Hits: 33
  • Snatched: 19 x time(s)
  • Last Action: 2019-09-18 09:02:17
Peers8 Seeder | 0 Leecher



Quote


Video
ID                                       : 3
Format                                   : AVC
Format/Info                              : Advanced Video Codec
Format profile                           : High@L4
Format settings, CABAC                   : Yes
Format settings, ReFrames                : 5 frames
Codec ID                                 : V_MPEG4/ISO/AVC
Duration                                 : 1h 32mn
Bit rate                                 : 4 600 Kbps
Width                                    : 1 920 pixels
Height                                   : 798 pixels
Display aspect ratio                     : 2.40:1
Frame rate mode                          : Constant
Frame rate                               : 23.976 (23976/1000) fps
Color space                              : YUV
Chroma subsampling                       : 4:2:0
Bit depth                                : 8 bits
Scan type                                : Progressive
Bits/(Pixel*Frame)                       : 0.125
Stream size                              : 2.98 GiB (92%)
Language                                 : English
Default                                  : Yes
Forced                                   : No
Color range                              : Limited
Color primaries                          : BT.709
Transfer characteristics                 : BT.709
Matrix coefficients                      : BT.709

Audio
ID                                       : 2
Format                                   : AC-3
Format/Info                              : Audio Coding 3
Mode extension                           : CM (complete main)
Format settings, Endianness              : Big
Codec ID                                 : A_AC3
Duration                                 : 1h 32mn
Bit rate mode                            : Constant
Bit rate                                 : 384 Kbps
Channel(s)                               : 6 channels
Channel positions                        : Front: L C R, Side: L R, LFE
Sampling rate                            : 48.0 KHz
Frame rate                               : 31.250 fps (1536 spf)
Compression mode                         : Lossy
Delay relative to video                  : -42ms
Stream size                              : 254 MiB (8%)
Language                                 : English
Default                                  : Yes
Forced                                   : No

Text
ID                                       : 1
Format                                   : UTF-8
Codec ID                                 : S_TEXT/UTF8
Codec ID/Info                            : UTF-8 Plain Text
Duration                                 : 1h 31mn
Bit rate                                 : 67 bps
Count of elements                        : 1290
Stream size                              : 45.3 KiB (0%)
Language                                 : English
Default                                  : Yes
Forced                                   : No

Menu
00:00:00.000                             : en:Chapter 1
00:09:43.458                             : en:Chapter 2
00:18:54.257                             : en:Chapter 3
00:28:33.501                             : en:Chapter 4
00:37:07.055                             : en:Chapter 5
00:46:25.613                             : en:Chapter 6
00:55:25.194                             : en:Chapter 7
01:04:04.587                             : en:Chapter 8
01:13:11.967                             : en:Chapter 9
01:22:02.037                             : en:Chapter 10
01:28:18.872                             : en:Chapter 11




Haunt 2019 1080p WEB-DL DD5.1 x264-EVO screenshots Haunt 2019 1080p WEB-DL DD5.1 x264-EVO screenshots Haunt 2019 1080p WEB-DL DD5.1 x264-EVO screenshots Haunt 2019 1080p WEB-DL DD5.1 x264-EVO screenshots Haunt 2019 1080p WEB-DL DD5.1 x264-EVO screenshots Haunt 2019 1080p WEB-DL DD5.1 x264-EVO screenshots Haunt 2019 1080p WEB-DL DD5.1 x264-EVO screenshots Haunt 2019 1080p WEB-DL DD5.1 x264-EVO screenshots Haunt 2019 1080p WEB-DL DD5.1 x264-EVO screenshots Haunt 2019 1080p WEB-DL DD5.1 x264-EVO screenshots
TitleHaunt
Year2019
Genre
Rating6.2 (92 votes)
Plotn/A
DirectorScott Beck,Bryan Woods
CastsKatie Stevens,Will Brittain,Lauryn Alisa McClain,Andrew Caldwell,Shazi Raja…
Runtime92 min
Haunt


Ryde 2016 1080p BluRay DTS x265-10bit-HDS13 Sins 2014 ViE BluRay 720p DTS x264-CHDScissors 1991 720p BluRay FLAC2 0 x264-VietHDThe Last Exorcism Part II 2013 1080p BluRay DD5.1 x264-EbP0.0MHz 2019 1080p WEB-DL AAC x264-NonDRMAlmost Human 2013 LIMITED 720p BluRay x264-GECKOS

Only members can create comment.