NetHD.org

EPL 2019/11/10: Liverpool vs Manchester City 720p HDTV AAC2.0 x264

Download EPL 2019/11/10: Liverpool vs Manchester City 720p HDTV AAC2.0 x264 
Small DescriptionQuay đầu là bờ nhé ae [em19]
Basic Info
Uploaded byMou (Moderator) at 2019-11-11 08:37:56
Action
Hot Meter
  • Views: 147
  • Hits: 25
  • Snatched: 18 x time(s)
  • Last Action: 2019-11-21 20:03:58
Peers5 Seeder | 0 Leecher



General
Unique ID                   : 137410508242317124758971293204746572716 (0x67604D1EB3DEBCC85DE0E40E2E4393AC)
Complete name               : H:\Liverpool - Manchester City 10.11.19.mkv
Format                      : Matroska
Format version              : Version 4
File size                   : 3.28 GiB
Duration                    : 1 h 44 min
Overall bit rate            : 4 498 kb/s
Encoded date                : UTC 2019-11-10 18:34:28
Writing application         : mkvmerge v28.1.0 ('Morning Child') 64-bit
Writing library             : libebml v1.3.6 + libmatroska v1.4.9

Video
ID                          : 1
Format                      : AVC
Format/Info                 : Advanced Video Codec
Format profile              : High@L4.1
Format settings             : CABAC / 4 Ref Frames
Format settings, CABAC      : Yes
Format settings, ReFrames   : 4 frames
Codec ID                    : V_MPEG4/ISO/AVC
Duration                    : 1 h 44 min
Bit rate mode               : Constant
Bit rate                    : 4 372 kb/s
Width                       : 1 280 pixels
Height                      : 720 pixels
Display aspect ratio        : 16:9
Frame rate mode             : Constant
Frame rate                  : 59.940 (60000/1001) FPS
Color space                 : YUV
Chroma subsampling          : 4:2:0
Bit depth                   : 8 bits
Scan type                   : Progressive
Bits/(Pixel*Frame)          : 0.079
Stream size                 : 3.18 GiB (97%)
Default                     : Yes
Forced                      : No

Audio
ID                          : 2
Format                      : AAC LC
Format/Info                 : Advanced Audio Codec Low Complexity
Codec ID                    : A_AAC-2
Duration                    : 1 h 44 min
Bit rate                    : 125 kb/s
Channel(s)                  : 2 channels
Channel layout              : L R
Sampling rate               : 48.0 kHz
Frame rate                  : 46.875 FPS (1024 SPF)
Compression mode            : Lossy
Delay relative to video     : -14 ms
Stream size                 : 93.6 MiB (3%)
Default                     : Yes
Forced                      : No



EPL 2019/11/10: Liverpool vs Manchester City 720p HDTV AAC2.0 x264 screenshots EPL 2019/11/10: Liverpool vs Manchester City 720p HDTV AAC2.0 x264 screenshots EPL 2019/11/10: Liverpool vs Manchester City 720p HDTV AAC2.0 x264 screenshots 



MotoGP 2018 Round19 Valencia Race 720p FOXSPORTS AAC2.0 x264-NaN MotoGP 2019 Round05 France Race 720p HDTV AAC2.0 x264-NaN FIFA World Cup 2018 Round of 16 Colombia vs England 1080p HDTV x264-VERUMI Am Bolt 2016 1080p BluRay DD5.1 x264-IDEMotoGP 2019 Round07 Catalunya Race 720p HDTV AAC2.0 x264-NaN Formula1 2018 Round12 Hungary Race 720p FOXSPORTS AAC2.0 x264-NaN

Only members can create comment.