NetHD.org

Portrait of a Lady on Fire (2019) WEB-DL 1080p AVC DD5.1-BLUEBIRD

Download Portrait of a Lady on Fire (2019) WEB-DL 1080p AVC DD5.1-BLUEBIRD Free
Small DescriptionLGBT | Bức Chân Dung Bị Thiêu Cháy | Phụ đề Việt | In 18th century France a young painter, Marianne, is commissioned to do the wedding portrait of Héloïse without her knowing. Therefore, Marianne must observe her model by day to paint her portrait at night. Day by day, the two women become closer as they share Héloïse's last moments of freedom before the impending wedding.
Basic Info
Uploaded byaavc (Power User) at 2020-01-16 08:28:18
Action
Hot Meter
  • Views: 297
  • Hits: 63
  • Snatched: 45 x time(s)
  • Last Action: 2020-01-26 15:00:19
Peers6 Seeder | 0 Leecher



[url=https://www.dongphim.net/movie/buc-chan-dung-bi-thieu-chay-portrait-of-a-lady-on-fire-2019_PrghXQmf.html][/url]LGBT | Bức Chân Dung Bị Thiêu Cháy | Phụ đề Việt






Portrait of a Lady on Fire (2019) WEB-DL 1080p AVC DD5.1-BLUEBIRD screenshots




Portrait of a Lady on Fire (2019) WEB-DL 1080p AVC DD5.1-BLUEBIRD screenshots




Quote

Câu chuyện xảy ra vào cuối thế kỷ thứ mười tám, Marianne là một họa sĩ trẻ, được giao nhiệm vụ vẽ một bức chân dung của một phụ nữ trẻ sẽ được sử dụng để tìm kiếm những lời cầu hôn. Biết rằng người phụ nữ ấy - Héloïse, trước đây đã từ chối ngồi chụp ảnh chân dung vì cô không muốn kết hôn, Marianne cải trang thành một cô hầu gái để có được sự tin tưởng của đối tượng
Càng hiểu về Héloïse , Marine càng đắm chìm vào tình yêu và không còn cách nào thoát ra, cô chỉ muốn ở lại bên cạnh người mình yêu thương nhất . Chính vì vậy, để cứu người yêu thoát khỏi cảnh bị gia đình bắt ép hôn nhân , Marine đã châm lửa đốt bức trang của tình nhân.





Portrait of a Lady on Fire (2019) WEB-DL 1080p AVC DD5.1-BLUEBIRD screenshots





Quote

General
Unique ID                   : 192130427296036395114517482908628625068 (0x908AF96CC18A557EB58868E9618D26AC)
Complete name               : \\AAVC-PC\Downloads\tor\LGBT_PORTRAIT_2019_WEB-DL_1080p-BLUEBIRD.mkv
Format                      : Matroska
Format version              : Version 4
File size                   : 4.40 GiB
Duration                    : 2 h 1 min
Overall bit rate            : 5 199 kb/s
Movie name                  : LGBT_PORTRAIT_2019_WEB-DL_1080p-BLUEBIRD
Encoded date                : UTC 2020-01-15 19:21:08
Writing application         : mkvmerge v6.9.1 ('Blue Panther') 32bit built on Apr 18 2014 18:15:44
Writing library             : libebml v1.3.0 + libmatroska v1.4.1
Cover                       : Yes
Attachments                 : cover.png

Video
ID                          : 1
Format                      : AVC
Format/Info                 : Advanced Video Codec
Format profile              : High@L4
Format settings             : CABAC / 4 Ref Frames
Format settings, CABAC      : Yes
Format settings, Reference  : 4 frames
Codec ID                    : V_MPEG4/ISO/AVC
Duration                    : 2 h 1 min
Bit rate                    : 4 711 kb/s
Width                       : 1 912 pixels
Height                      : 1 032 pixels
Display aspect ratio        : 1.85:1
Frame rate mode             : Constant
Frame rate                  : 23.976 (24000/1001) FPS
Color space                 : YUV
Chroma subsampling          : 4:2:0
Bit depth                   : 8 bits
Scan type                   : Progressive
Bits/(Pixel*Frame)          : 0.100
Stream size                 : 3.99 GiB (91%)
Title                       : LGBT_PORTRAIT_2019_WEB-DL_1080p-BLUEBIRD
Language                    : English
Default                     : Yes
Forced                      : No
Color range                 : Limited
Color primaries             : BT.709
Transfer characteristics    : BT.709
Matrix coefficients         : BT.709

Audio
ID                          : 2
Format                      : AC-3
Format/Info                 : Audio Coding 3
Commercial name             : Dolby Digital
Codec ID                    : A_AC3
Duration                    : 2 h 1 min
Bit rate mode               : Constant
Bit rate                    : 384 kb/s
Channel(s)                  : 6 channels
Channel layout              : L R C LFE Ls Rs
Sampling rate               : 48.0 kHz
Frame rate                  : 31.250 FPS (1536 SPF)
Bit depth                   : 16 bits
Compression mode            : Lossy
Stream size                 : 333 MiB (7%)
Title                       : [DUB] DD 5.1 @ 384 kbps (iTunes)
Language                    : Russian
Service kind                : Complete Main
Default                     : Yes
Forced                      : No

Text
ID                          : 3
Format                      : UTF-8
Codec ID                    : S_TEXT/UTF8
Codec ID/Info               : UTF-8 Plain Text
Title                       : Full-length
Language                    : Russian
Default                     : No
Forced                      : No

Menu
00:00:00.000                : en:1
00:08:42.000                : en:2
00:18:41.000                : en:3
00:28:19.000                : en:4
00:40:19.000                : en:5
00:52:58.000                : en:6
01:03:39.000                : en:7
01:14:32.000                : en:8
01:22:20.000                : en:9
01:34:53.000                : en:10
01:44:23.000                : en:11
01:52:22.000                : en:12
01:58:28.000                : en:13








Portrait of a Lady on Fire (2019) WEB-DL 1080p AVC DD5.1-BLUEBIRD screenshots

Portrait of a Lady on Fire (2019) WEB-DL 1080p AVC DD5.1-BLUEBIRD screenshotsPortrait of a Lady on Fire (2019) WEB-DL 1080p AVC DD5.1-BLUEBIRD screenshotsPortrait of a Lady on Fire (2019) WEB-DL 1080p AVC DD5.1-BLUEBIRD screenshotsPortrait of a Lady on Fire (2019) WEB-DL 1080p AVC DD5.1-BLUEBIRD screenshots





Portrait of a Lady on Fire (2019) WEB-DL 1080p AVC DD5.1-BLUEBIRD screenshots


TitlePortrait de la jeune fille en feu
Year2019
GenreDrama
Rating8.2 (12,844 votes)
PlotIn 18th century France a young painter, Marianne, is commissioned to do the wedding portrait of Héloïse without her knowing. Therefore, Marianne must observe her model by day to paint her portrait at night. Day by day, the two women become closer as they share Héloïse's last moments of freedom before the impending wedding.
DirectorCéline Sciamma
CastsNoémie Merlant,Adèle Haenel,Luàna Bajrami,Valeria Golino,Christel Baras…
Runtime121 min
Portrait de la jeune fille en feu


One from the Heart 1982 mHD BluRay DD5.1 x264-TRiMCrossing Over 2009 Hybrid 1080p BluRay DTS x264-CtrlHDOryu's Passion: Bondage Skin 1975 1080i Blu-ray AVC TrueHD 2.0-ADCJattilainen AKA The Mine 2016 720p BluRay DD5.1 x264-DONFlammen And Citronen 2008 mHD Bluray DD5.1 x264-TRiMFukushû suru wa ware ni ari 1979 1080p Blu-Ray AVC DTS-HD MA 2.0

Only members can create comment.