NetHD.org

Mummy Reborn 2019 1080p WEB-DL DD5.1 H264-FGT

Download Mummy Reborn 2019 1080p WEB-DL DD5.1 H264-FGT Free
Small DescriptionWhen a group of teens in financial ruin decide to rob the local antique store, they discover an old wooden tomb containing a Mummy's corpse and an ancient amulet. But what they don't realise is that this tomb is cursed, and when the amulet is separated from it's master, he will do anything to get it back. Our burglars must save the day and return the Mummy to it's tomb before it is too late to save the world. Written by Production
Basic Info
Uploaded byaavc (Power User) at 2020-01-16 15:26:31
Action
Hot Meter
  • Views: 478
  • Hits: 55
  • Snatched: 39 x time(s)
  • Last Action: 2020-01-26 13:54:50
Peers7 Seeder | 0 Leecher







Mummy Reborn 2019 1080p WEB-DL DD5.1 H264-FGT screenshots




Quote
When a group of teens in financial ruin decide to rob the local antique store, they discover an old wooden tomb containing a Mummy's corpse and an ancient amulet. But what they don't realise is that this tomb is cursed, and when the amulet is separated from it's master, he will do anything to get it back. Our burglars must save the day and return the Mummy to it's tomb before it is too late to save the world.








Mummy Reborn 2019 1080p WEB-DL DD5.1 H264-FGT screenshots




Quote

General
Unique ID                   : 223990172491104303766595904224886272058 (0xA882F023B609FCA10A731CD6F918303A)
Complete name               : \\AAVC-PC\Downloads\tor\Mummy.Reborn.2019.1080p.WEB-DL.DD5.1.H264-FGT.mkv
Format                      : Matroska
Format version              : Version 4
File size                   : 2.75 GiB
Duration                    : 1 h 20 min
Overall bit rate            : 4 910 kb/s
Movie name                  : Mummy.Reborn.2019.1080p.WEB-DL.DD5.1.H264-FGT
Encoded date                : UTC 2019-04-02 05:07:33
Writing application         : mkvmerge v32.0.0 ('Astral Progressions') 64-bit
Writing library             : libebml v1.3.7 + libmatroska v1.5.0
Cover                       : Yes
Attachments                 : cover_land.jpg / small_cover.jpg / small_cover_land.jpg / cover.jpg

Video
ID                          : 1
Format                      : AVC
Format/Info                 : Advanced Video Codec
Format profile              : High@L4
Format settings             : CABAC / 5 Ref Frames
Format settings, CABAC      : Yes
Format settings, Reference  : 5 frames
Codec ID                    : V_MPEG4/ISO/AVC
Duration                    : 1 h 20 min
Bit rate                    : 4 525 kb/s
Width                       : 1 920 pixels
Height                      : 808 pixels
Display aspect ratio        : 2.40:1
Frame rate mode             : Constant
Frame rate                  : 24.000 FPS
Color space                 : YUV
Chroma subsampling          : 4:2:0
Bit depth                   : 8 bits
Scan type                   : Progressive
Bits/(Pixel*Frame)          : 0.122
Stream size                 : 2.53 GiB (92%)
Title                       : Mummy.Reborn.2019.1080p.WEB-DL.DD5.1.H264-FGT
Language                    : English
Default                     : Yes
Forced                      : No
Color range                 : Limited
Color primaries             : BT.709
Transfer characteristics    : BT.709
Matrix coefficients         : BT.709

Audio
ID                          : 2
Format                      : AC-3
Format/Info                 : Audio Coding 3
Commercial name             : Dolby Digital
Codec ID                    : A_AC3
Duration                    : 1 h 20 min
Bit rate mode               : Constant
Bit rate                    : 384 kb/s
Channel(s)                  : 6 channels
Channel layout              : L R C LFE Ls Rs
Sampling rate               : 48.0 kHz
Frame rate                  : 31.250 FPS (1536 SPF)
Bit depth                   : 16 bits
Compression mode            : Lossy
Delay relative to video     : -42 ms
Stream size                 : 220 MiB (8%)
Title                       : Mummy.Reborn.2019.1080p.WEB-DL.DD5.1.H264-FGT
Language                    : English
Service kind                : Complete Main
Default                     : Yes
Forced                      : No

Menu
00:00:00.000                : en:1
00:11:58.375                : en:2
00:21:13.083                : en:3
00:33:46.041                : en:4
00:44:36.291                : en:5
00:55:27.207                : en:6
01:06:47.040                : en:7
01:16:53.580                : en:8






Mummy Reborn 2019 1080p WEB-DL DD5.1 H264-FGT screenshots



Mummy Reborn 2019 1080p WEB-DL DD5.1 H264-FGT screenshots Mummy Reborn 2019 1080p WEB-DL DD5.1 H264-FGT screenshots Mummy Reborn 2019 1080p WEB-DL DD5.1 H264-FGT screenshots Mummy Reborn 2019 1080p WEB-DL DD5.1 H264-FGT screenshots 

TitleMummy Reborn
Year2019
GenreComedy
Rating3.3 (506 votes)
PlotWhen a group of teens in financial ruin decide to rob the local antique store, they discover an old wooden tomb containing a Mummy's corpse and an ancient amulet. But what they don't realise is that this tomb is cursed, and when the amulet is separated from it's master, he will do anything to get it back. Our burglars must save the day and return the Mummy to it's tomb before it is too late to save the world. Written by Production
DirectorDan Allen
CastsTiffany-Ellen Robinson,Tara MacGowran,Georgia Wood,Chris Kaye,Claudine-Helene Aumord…
Runtime80 min
Mummy Reborn


Demain tout commence 2016 1080p NLD Blu-ray AVC DTS-HD MA 5.1Mr Vampire 2.1986 ViE 720p BluRay DD5.1 x264-HDWinG Father There Is Only One 2019 1080p BluRay DD+5.1 x264-EAA Million Ways to Die in the West 2014 2in1 720p BluRay DD5.1 x264-VietHDBeing There 1979 1080p BluRay AAC1 0 x264-EAFearless Hyena 1979 ViE mHD BluRay DD5.1 x264-TRiM

Only members can create comment.