NetHD.org

Trollhunters S01 720p NF WEBRip DD5.1 x264-BDNB

Download Trollhunters S01 720p NF WEBRip DD5.1 x264-BDNB 
Small DescriptionMột series hoạt hình mới của Dreamworks Animation và Netflix mà bạn không thể bỏ qua!
Basic Info
Uploaded byllshandy (Elite User) at 2017-01-19 18:35:38
Action
Hot Meter
  • Views: 1229
  • Hits: 109
  • Snatched: 55 x time(s)
  • Last Action: 2020-04-12 23:49:17
Peers0 Seeder | 0 Leecher




Quote
Được dựa trên bộ truyện được viết bởi chính Guillermo, nội dung phim kể về cậu học sinh Jim, một chàng trai khá dễ thương, hiền lành, có tính tự lập cao và quan tâm đến người khác, có những ước mơ, niềm đam mê. Một hôm, Jim tình cờ tìm được một mảnh huy hiệu sẽ thay đổi cuộc đời cậu mãi mãi, đấy là vũ khí để giúp cậu có thể trở thành Trollhunter, người đứng ra bảo vệ cân bằng giữa hai chủng tộc Troll hiền lành và Troll xấu tính, đương nhiên, Jim là "thợ săn" đầu tiên là con người, được hỗ trợ bởi những người bạn thân, cùng nhau họ sẽ chống lại kẻ phản diện đầy hũng mãnh có tên là Bular.



Format                         : Matroska
Format version                 : Version 4 / Version 2
File size                      : 397 MiB
Duration                       : 21 min
Overall bit rate               : 2 558 kb/s
Movie name                     : Trollhunters.S01E01.720p.NF.WEBRip.DD5.1.x264-BDNB
Encoded date                   : UTC 2016-12-24 20:02:55
Writing application            : mkvmerge v9.6.0 ('Slave To Your Mind') 64bit
Writing library                : libebml v1.3.4 + libmatroska v1.4.5

Video
ID                             : 1
Format                         : AVC
Format/Info                    : Advanced Video Codec
Format profile                 : High@L4.1
Format settings, CABAC         : Yes
Format settings, ReFrames      : 9 frames
Codec ID                       : V_MPEG4/ISO/AVC
Duration                       : 21 min
Bit rate                       : 2 173 kb/s
Width                          : 1 280 pixels
Height                         : 720 pixels
Display aspect ratio           : 16:9
Frame rate mode                : Constant
Frame rate                     : 23.976 (24000/1001) FPS
Color space                    : YUV
Chroma subsampling             : 4:2:0
Bit depth                      : 8 bits
Scan type                      : Progressive
Bits/(Pixel*Frame)             : 0.098
Stream size                    : 337 MiB (85%)
Writing library                : x264 core 148 r2638 7599210
Encoding settings              : cabac=1 / ref=9 / deblock=1:-3:-3 / analyse=0x3:0x133 / me=umh / subme=11 / psy=1 / psy_rd=0.40:0.00 / mixed_ref=1 / me_range=32 / chroma_me=1 / trellis=2 / 8x8dct=1 / cqm=0 / deadzone=21,11 / fast_pskip=0 / chroma_qp_offset=-2 / threads=12 / lookahead_threads=1 / sliced_threads=0 / nr=0 / decimate=1 / interlaced=0 / bluray_compat=0 / constrained_intra=0 / bframes=5 / b_pyramid=2 / b_adapt=2 / b_bias=0 / direct=3 / weightb=1 / open_gop=0 / weightp=2 / keyint=240 / keyint_min=23 / scenecut=40 / intra_refresh=0 / rc_lookahead=60 / rc=crf / mbtree=1 / crf=18.0 / qcomp=0.60 / qpmin=0 / qpmax=69 / qpstep=4 / ip_ratio=1.40 / aq=3:0.70
Default                        : Yes
Forced                         : No

Audio
ID                             : 2
Format                         : AC-3
Format/Info                    : Audio Coding 3
Mode extension                 : CM (complete main)
Format settings, Endianness    : Big
Codec ID                       : A_AC3
Duration                       : 21 min
Bit rate mode                  : Constant
Bit rate                       : 384 kb/s
Channel(s)                     : 6 channels
Channel positions              : Front: L C R, Side: L R, LFE
Sampling rate                  : 48.0 kHz
Frame rate                     : 31.250 FPS (1536 spf)
Compression mode               : Lossy
Stream size                    : 59.6 MiB (15%)
Title                          : @BDNB [ENG] Dolby Digital 5.1
Language                       : English
Default                        : Yes
Forced                         : No


Trollhunters S01 720p NF WEBRip DD5.1 x264-BDNB screenshots
Trollhunters S01 720p NF WEBRip DD5.1 x264-BDNB screenshots
Trollhunters S01 720p NF WEBRip DD5.1 x264-BDNB screenshots
Trollhunters S01 720p NF WEBRip DD5.1 x264-BDNB screenshots

TitleTrollhunters
Year2016
GenreAnimation
Rating8.4 (11,934 votes)
PlotJim Lake Jr. is an ordinary kid with a busy Mom and a yearning to have more adventure in his life. As it happens, Jim gets more than he wished when he finds a magic amulet under a bridge.calling to him. With that discovery, Jim finds himself recruited as the next. and first human, Troll Hunter, the champion of the Troll world. Together with his friend, Toby Domzalski, Jim discovers the world of Troll Market, where he begins his training under the tutelage of his new mentors, Blinky and…
Directorn/A
CastsCharlie Saxton / Lexi Medrano / Anton Yelchin / Kelsey Grammer / Fred Tatasciore…
Runtime23 min
Trollhunters


Cars 2 2011 Hybrid VIE 720p BluRay x264-EbP The Lion King 2: Simba's Pride 1998 720p BluRay DD5.1 x264-EbPTonde Buurin 1994 Complete 51/51 DVDRip XViDCartoon Thuyết Minh Movie Pack Collection 01 mHD BluRay MPA/AAC/DD x264-EPiKThe SpongeBob Square Pants Movie 2004 720p HDTV DD5.1 x264-HDCLUBThe Good, the Bad, and Huckleberry Hound 1988 1080p WEBRip AAC2.0 x264-monkee