Under The Sea 3D 2009 ViE mHD BluRay DD5.1 x264-TRiM

Download Under The Sea 3D 2009 ViE mHD BluRay DD5.1 x264-TRiM  
Small DescriptionDưới Lòng Đại Dương | Thuyết Minh
Basic Info
Uploaded byjolli (Newbie) at 2018-05-17 01:52:55
Action
Social
  • 4
Hot Meter
  • Views: 252
  • Hits: 49
  • Snatched: 37 x time(s)
  • Last Action: 2018-07-17 23:36:13
Peers8 Seeder | 0 Leecher
Under The Sea 3D 2009 ViE mHD BluRay DD5.1 x264-TRiM  screenshots


Under The Sea 3D 2009 ViE mHD BluRay DD5.1 x264-TRiM  screenshots

Quote
Đại dương ẩn chứa nhiều bí ẩn và vẻ đẹp không thể tả bằng lời, mời các bạn theo dõi những loài động vật sống ở dưới sâu trong lòng đại dương bao la...



Under The Sea 3D 2009 ViE mHD BluRay DD5.1 x264-TRiM  screenshots

Quote
Source: IMAX Under The Sea 2009 1080p Blu-Ray 3D AVC DTS-HDMA5.1-Ourdisc
Encoder: JoL
x264 [info]: frame I:275   Avg QP:23.23  size:120560
x264 [info]: frame P:14896 Avg QP:26.23  size: 32330
x264 [info]: frame B:43554 Avg QP:27.49  size:  9253
x264 [info]: consecutive B-frames:  1.8%  4.9%  6.3% 59.5% 10.0% 10.9%  1.7%  2.9%  0.8%  0.3%  0.1%  0.4%  0.3%
encoded 58725 frames, 7.74 fps, 2997.50 kb/s, duration 2:06:25.37



General
Complete name               : C:\Under The Sea 3D 2009 ViE mHD BluRay DD5.1 x264-TRiM.mkv
Format                      : Matroska
Format version              : Version 4 / Version 2
File size                   : 1.22 GiB
Duration                    : 40 min 52 s
Overall bit rate            : 4 275 kb/s
Movie name                  : Dưới Lòng Đại Dương | Thuyết Minh
Encoded date                : UTC 2018-05-16 18:43:57
Writing application         : mkvmerge v13.0.0 ('The Juggler') 64bit
Writing library             : libebml v1.3.4 + libmatroska v1.4.5
Cover                       : Yes
Attachments                 : cover.jpg

Video
ID                          : 1
Format                      : AVC
Format/Info                 : Advanced Video Codec
Format profile              : High@L4.1
Format settings             : CABAC / 9 Ref Frames
Format settings, CABAC      : Yes
Format settings, ReFrames   : 9 frames
Codec ID                    : V_MPEG4/ISO/AVC
Duration                    : 40 min 49 s
Bit rate                    : 3 000 kb/s
Width                       : 1 280 pixels
Height                      : 720 pixels
Display aspect ratio        : 16:9
Frame rate mode             : Constant
Frame rate                  : 23.976 (24000/1001) FPS
Color space                 : YUV
Chroma subsampling          : 4:2:0
Bit depth                   : 8 bits
Scan type                   : Progressive
Bits/(Pixel*Frame)          : 0.136
Stream size                 : 875 MiB (70%)
Writing library             : x264 core 148 r2721kMod 72d53ab
Encoding settings           :  
Language                    : Vietnamese
Default                     : Yes
Forced                      : No
Color range                 : Limited
Matrix coefficients         : BT.709

Audio #1
ID                          : 2
Format                      : AC-3
Format/Info                 : Audio Coding 3
Codec ID                    : A_AC3
Duration                    : 40 min 51 s
Bit rate mode               : Constant
Bit rate                    : 640 kb/s
Channel(s)                  : 2 channels
Channel positions           : Front: L R
Sampling rate               : 48.0 kHz
Frame rate                  : 31.250 FPS (1536 SPF)
Bit depth                   : 16 bits
Compression mode            : Lossy
Stream size                 : 187 MiB (15%)
Title                       : vinadot Vietnamese AC3 5.1 @ 640 Kbps
Language                    : Vietnamese
Service kind                : Complete Main
Default                     : Yes
Forced                      : Yes

Audio #2
ID                          : 3
Format                      : AC-3
Format/Info                 : Audio Coding 3
Codec ID                    : A_AC3
Duration                    : 40 min 52 s
Bit rate mode               : Constant
Bit rate                    : 640 kb/s
Channel(s)                  : 6 channels
Channel positions           : Front: L C R, Side: L R, LFE
Sampling rate               : 48.0 kHz
Frame rate                  : 31.250 FPS (1536 SPF)
Bit depth                   : 16 bits
Compression mode            : Lossy
Stream size                 : 187 MiB (15%)
Language                    : English
Service kind                : Complete Main
Default                     : No
Forced                      : No

Under The Sea 3D 2009 ViE mHD BluRay DD5.1 x264-TRiM  screenshots
Under The Sea 3D 2009 ViE mHD BluRay DD5.1 x264-TRiM  screenshots Under The Sea 3D 2009 ViE mHD BluRay DD5.1 x264-TRiM  screenshots Under The Sea 3D 2009 ViE mHD BluRay DD5.1 x264-TRiM  screenshots Under The Sea 3D 2009 ViE mHD BluRay DD5.1 x264-TRiM  screenshots

Under The Sea 3D 2009 ViE mHD BluRay DD5.1 x264-TRiM  screenshots Under The Sea 3D 2009 ViE mHD BluRay DD5.1 x264-TRiM  screenshots Under The Sea 3D 2009 ViE mHD BluRay DD5.1 x264-TRiM  screenshots Under The Sea 3D 2009 ViE mHD BluRay DD5.1 x264-TRiM  screenshots
TitleUnder the Sea 3D
Year2009
GenreDocumentary / Short
Rating7.6 (1,603 votes)
Plotn/A
DirectorHoward Hall
CastsJim Carrey
Runtime40 min
GenresDocumentary / Short
Under the Sea 3D


Tags

Other releases

Same genre with Under The Sea 3D 2009 ViE mHD BluRay DD5.1 x264-TRiM

Into the universe with Stephen Hawking Ep01-03 HDTV 720p DD5.1 x264-CtrlHDThe Dust Bowl S01 720p BluRay DD5.1 x264-HiFiEarth: One Amazing Day 2017 1080p BluRay DD5.1 x264-ZQMonsters Inside Me Complete Series Season 1-4Biên giới Tây Nam - Cuộc chiến tranh bắt buộc 2013 SDTV National Geographic Kingdom Of The Forest 2010 1080i HDTV AVC

Comment for Under The Sea 3D 2009 ViE mHD BluRay DD5.1 x264-TRiM

Only members can create comment.