NetHD.org

Nâng Cấp RatioTài Khoản VIPDonate VDP

Uoc Hen Mua ,Thu 2019 1080p WEBRip x264

Download Uoc Hen Mua ,Thu 2019 1080p WEBRip x264 
DescriptionThanh xuân thời niên thiếu của bạn là gì? Có phải là một ai đó để nhớ, để tiếc nuối mỗi khi nghĩ về? Pha Lê (Hoàng Oanh) và Duy (Trần Quốc Anh) của “Ước Hẹn Mùa Thu” cũng từng có một thanh xuân như thế…
Basic Info
Uploaded byazumik10 (Elite User) at 2021-01-10 20:09:40
Action
Hot Meter
  • Views: 420
  • Hits: 76
  • Snatched: 46 x time(s)
  • Last Action: 2021-01-24 09:30:47
Peers13 Seeder | 0 Leecher


Uoc Hen Mua ,Thu 2019 1080p WEBRip x264 screenshots


Thanh xuân thời niên thiếu của bạn là gì? Có phải là một ai đó để nhớ, để tiếc nuối mỗi khi nghĩ về? Pha Lê (Hoàng Oanh) và Duy (Trần Quốc Anh) của “Ước Hẹn Mùa Thu” cũng từng có một thanh xuân như thế…

Uoc Hen Mua ,Thu 2019 1080p WEBRip x264 screenshots
General
Unique ID                                : 220009205814990905501931713145219541490 (0xA5843B54194550C68DCAA48F75B369F2)
Complete name                            : C:\Users\Admin\Documents\MuMu shared folder\Uoc.Hen.Mua.,Thu.2019.1080p.WEBRip.x264.LTTAgo.org.mkv
Format                                   : Matroska
Format version                           : Version 4
File size                                : 9.38 GiB
Duration                                 : 1 h 50 min
Overall bit rate                         : 12.1 Mb/s
Movie name                               : Uoc.Hen.Mua.,Thu.2019.1080p.WEBRip.x264.LTTAgo.org
Encoded date                             : UTC 2020-09-14 03:05:29
Writing application                      : mkvmerge v49.0.0 ('Sick Of Losing Soulmates') 64-bit
Writing library                          : libebml v1.4.0 + libmatroska v1.6.1

Video
ID                                       : 1
Format                                   : AVC
Format/Info                              : Advanced Video Codec
Format profile                           : Main@L3.2
Format settings                          : CABAC / 1 Ref Frames
Format settings, CABAC                   : Yes
Format settings, Reference frames        : 1 frame
Codec ID                                 : V_MPEG4/ISO/AVC
Duration                                 : 1 h 50 min
Bit rate                                 : 12.0 Mb/s
Width                                    : 1 280 pixels
Height                                   : 720 pixels
Display aspect ratio                     : 16:9
Frame rate mode                          : Constant
Frame rate                               : 60.000 FPS
Color space                              : YUV
Chroma subsampling                       : 4:2:0
Bit depth                                : 8 bits
Scan type                                : Progressive
Bits/(Pixel*Frame)                       : 0.216
Stream size                              : 9.26 GiB (99%)
Title                                    : LTTAgo.org
Default                                  : Yes
Forced                                   : No

Audio
ID                                       : 2
Format                                   : AAC LC
Format/Info                              : Advanced Audio Codec Low Complexity
Codec ID                                 : A_AAC-2
Duration                                 : 1 h 50 min
Bit rate                                 : 152 kb/s
Channel(s)                               : 2 channels
Channel layout                           : L R
Sampling rate                            : 44.1 kHz
Frame rate                               : 43.066 FPS (1024 SPF)
Compression mode                         : Lossy
Stream size                              : 120 MiB (1%)
Language                                 : Vietnamese
Default                                  : Yes
Forced                                   : Yes

Text
ID                                       : 3
Format                                   : UTF-8
Codec ID                                 : S_TEXT/UTF8
Codec ID/Info                            : UTF-8 Plain Text
Duration                                 : 1 h 12 min
Bit rate                                 : 0 b/s
Count of elements                        : 2
Stream size                              : 84.0 Bytes (0%)
Language                                 : Vietnamese
Default                                  : Yes
Forced                                   : Yes

Uoc Hen Mua ,Thu 2019 1080p WEBRip x264 screenshots
Uoc Hen Mua ,Thu 2019 1080p WEBRip x264 screenshots
TitleWorld Business Satellite
Year2004
GenreNews
Ratingn/A (n/A votes)
Plotn/A
Directorn/A
Castsn/A
Runtimen/A
World Business Satellite

A Good Year 2006 mHD BluRay DD5.1 x264-TRiMThe Long Dumb Road 2018 1080p BluRay DD5.1 x264-DONBlack Comedy 2014 mHD-720p Bluray AC3 x264-TRiM Something's Gotta Give 2003 ViE 720p HDTV DD5.1 x264-EbPAnother Year 2010 mHD BluRay DD5.1 x264-TRiMMister T 2019 720p BluRay x264-SPRiNTER