Waterworld 1995 ViE mHD BluRay DD5.1 x264-BiRD

Download Waterworld 1995 ViE mHD BluRay DD5.1 x264-BiRD 
Small DescriptionThế Giới Nước | Thuyết Minh VTC
Basic Info
Uploaded byMaster (★ Nothing Is Impossible ★) at 2015-08-05 15:02:28
Action
Social
  • 7
Hot Meter
  • Views: 576
  • Hits: 58
  • Snatched: 24 x time(s)
  • Last Action: 2018-12-08 19:14:45
Peers0 Seeder | 0 Leecher
Waterworld 1995 ViE mHD BluRay DD5.1 x264-BiRD screenshots


Bối cảnh của Waterworld là vào năm 2500. Sau một thảm hoạ sinh thái, trái đất bị bao phủ hoàn toàn bởi các đại dương. Những người may mắn sống sót phải sống trên những hòn đảo nhân tạo và mơ về một miền đất huyền thoại được bao phủ bởi những cánh rừng mênh mông và những thung lũng ngút ngàn. Trong trái đất ngập nước ở tương lai, con người phải sống bám trên một hòn đảo nhân tạo. Một tên bạo chúa điều khiển một chiếc tàu khổng lồ đi khắp thế giới để tìm một “vùng đất khô ráo” xâm lược một trong những hòn đảo khác, và một lữ khách bí ẩn tên là “Mariner” cứu một phụ nữ và đứa con nuôi của cô khỏi một cuộc thảm sát và tham gia một cuộc phiêu lưu để cứu nhân loại...

Format                                   : Matroska
Format version                           : Version 2
File size                                : 3.58 GiB
Duration                                 : 2h 15mn
Overall bit rate                         : 3 794 Kbps
Encoded date                             : UTC 2014-05-23 12:04:23
Writing application                      : mkvmerge v4.4.0 ('Die Wiederkehr') built on Oct 31 2010 21:52:48
Writing library                          : libebml v1.0.0 + libmatroska v1.0.0

Video
ID                                       : 1
Format                                   : AVC
Format/Info                              : Advanced Video Codec
Format profile                           : High@L4.1
Format settings, CABAC                   : Yes
Format settings, ReFrames                : 9 frames
Muxing mode                              : Header stripping
Codec ID                                 : V_MPEG4/ISO/AVC
Duration                                 : 2h 15mn
Bit rate                                 : 2 700 Kbps
Width                                    : 1 280 pixels
Height                                   : 694 pixels
Display aspect ratio                     : 16:9
Original display aspect ratio            : 1.85:1
Frame rate mode                          : Constant
Frame rate                               : 23.976 fps
Color space                              : YUV
Chroma subsampling                       : 4:2:0
Bit depth                                : 8 bits
Scan type                                : Progressive
Bits/(Pixel*Frame)                       : 0.127
Stream size                              : 2.48 GiB (69%)
Writing library                          : x264 core 115 r1995 c1e60b9
Encoding settings                        : cabac=1 / ref=9 / deblock=1:-3:-3 / analyse=0x3:0x113 / me=tesa / subme=10 / psy=1 / psy_rd=1.00:0.00 / mixed_ref=1 / me_range=16 / chroma_me=1 / trellis=2 / 8x8dct=1 / cqm=0 / deadzone=21,11 / fast_pskip=0 / chroma_qp_offset=-2 / threads=12 / sliced_threads=0 / nr=0 / decimate=0 / interlaced=0 / bluray_compat=0 / constrained_intra=0 / bframes=8 / b_pyramid=2 / b_adapt=2 / b_bias=0 / direct=3 / weightb=1 / open_gop=0 / weightp=2 / keyint=250 / keyint_min=23 / scenecut=40 / intra_refresh=0 / rc_lookahead=40 / rc=2pass / mbtree=1 / bitrate=2700 / ratetol=1.0 / qcomp=0.60 / qpmin=0 / qpmax=69 / qpstep=4 / cplxblur=20.0 / qblur=0.5 / ip_ratio=1.40 / aq=1:0.80
Language                                 : English
Default                                  : Yes
Forced                                   : No

Audio #1
ID                                       : 2
Format                                   : AC-3
Format/Info                              : Audio Coding 3
Mode extension                           : CM (complete main)
Format settings, Endianness              : Big
Muxing mode                              : Header stripping
Codec ID                                 : A_AC3
Duration                                 : 2h 15mn
Bit rate mode                            : Constant
Bit rate                                 : 640 Kbps
Channel(s)                               : 6 channels
Channel positions                        : Front: L C R, Side: L R, LFE
Sampling rate                            : 48.0 KHz
Bit depth                                : 16 bits
Compression mode                         : Lossy
Stream size                              : 619 MiB (17%)
Language                                 : English
Default                                  : No
Forced                                   : No

Audio #2
ID                                       : 3
Format                                   : AC-3
Format/Info                              : Audio Coding 3
Mode extension                           : CM (complete main)
Format settings, Endianness              : Big
Muxing mode                              : Header stripping
Codec ID                                 : A_AC3
Duration                                 : 2h 15mn
Bit rate mode                            : Constant
Bit rate                                 : 448 Kbps
Channel(s)                               : 6 channels
Channel positions                        : Front: L C R, Side: L R, LFE
Sampling rate                            : 48.0 KHz
Bit depth                                : 16 bits
Compression mode                         : Lossy
Stream size                              : 433 MiB (12%)
Language                                 : Vietnamese
Default                                  : Yes
Forced                                   : No

Text #1
ID                                       : 4
Format                                   : VobSub
Muxing mode                              : zlib
Codec ID                                 : S_VOBSUB
Codec ID/Info                            : The same subtitle format used on DVDs
Language                                 : English
Default                                  : Yes
Forced                                   : No

Text #2
ID                                       : 5
Format                                   : VobSub
Muxing mode                              : zlib
Codec ID                                 : S_VOBSUB
Codec ID/Info                            : The same subtitle format used on DVDs
Language                                 : Portuguese
Default                                  : No
Forced                                   : No

Menu
00:00:00.000                             : en:00:00:00.000
00:06:29.013                             : en:00:06:29.013
00:09:56.053                             : en:00:09:56.053
00:25:33.865                             : en:00:25:33.865
00:53:20.739                             : en:00:53:20.739
00:59:36.948                             : en:00:59:36.948
01:15:04.291                             : en:01:15:04.291
01:21:22.627                             : en:01:21:22.627
01:25:18.238                             : en:01:25:18.238
01:39:30.255                             : en:01:39:30.255
01:43:48.597                             : en:01:43:48.597
01:49:08.041                             : en:01:49:08.041
01:55:18.536                             : en:01:55:18.536
01:57:06.394                             : en:01:57:06.394
01:59:40.131                             : en:01:59:40.131
02:06:31.542                             : en:02:06:31.542

Waterworld 1995 ViE mHD BluRay DD5.1 x264-BiRD screenshots Waterworld 1995 ViE mHD BluRay DD5.1 x264-BiRD screenshots Waterworld 1995 ViE mHD BluRay DD5.1 x264-BiRD screenshots Waterworld 1995 ViE mHD BluRay DD5.1 x264-BiRD screenshots Waterworld 1995 ViE mHD BluRay DD5.1 x264-BiRD screenshots Waterworld 1995 ViE mHD BluRay DD5.1 x264-BiRD screenshots

TitleWaterworld
Year1995
Genre
Rating6.2 (162,441 votes)
PlotThe polar ice caps have melted, and the earth is covered by water. The remaining people travel the seas, in search of survival. Several different societies exist. The Mariner falls from his customary and solitary existence into having to care for a woman and a young girl while being pursued by the evil forces of the Deacon. Written by Robbie Smith
DirectorKevin Reynolds
CastsKevin Costner,Chaim Jeraffi,Rick Aviles,R.D. Call,Zitto Kazann…
Runtime135 min
Genres
Waterworld


Tags

Other releases

Same genre with Waterworld 1995 ViE mHD BluRay DD5.1 x264-BiRD

X-Men: Days of Future Past 2014 ViE The Rogue Cut mHD BluRay DD5.1 x264-EPiKThe Whistleblower 2010 mHD BluRay DD5.1 x264-TRiMRace 2 2013 1080p BluRay DTS x264-TayTOAssassination Games 2011 1080p BluRay DTS x264-DONHardcore Henry 2015 1080p BluRay DTS x264-OmertaHDFortress of War 2010 ViE 1080p BluRay DTS x264-WiKi

Comment for Waterworld 1995 ViE mHD BluRay DD5.1 x264-BiRD

Only members can create comment.